Loading...
Error

Скачать Святой Георгий убивает дракона / Свети Георгиjе убива Аждаху (Срджан Драгоевич) [2009, драма, DVDRip] [AVO] торрент без регистрации

 
Статистика раздачи
Размер:  1,37 GB   |    Скачан:  116 раз
Сидов:  1  [  0 KB/s  ]  
 
Автор Сообщение

Marsianka

[] 



Информация о фильме
Название: Святой Георгий убивает дракона
Оригинальное название: Свети Георгиjе убива Аждаху
Год выхода: 2009
Жанр: драма
Режиссер: Срджан Драгоевич
В ролях: Лазар Ристовски, Натаса Янжич, Бора Тодорович, Зоран Цвиянович, Борис Миливоевич, Милена Дравич, Бранислав Лечич, Срджан Милетич, Милютин Милошевич, Слободан Нинкович

О фильме:
В начале Первой мировой войны все здоровые мужчины в Сербии мобилизованы на фронт. В деревне остались только старики, дети, женщины и ветераны-инвалиды прошлых балканских войн. На фронт доходят слухи, что калеки воспользовались ситуацией. Чтобы предотвратить бунт, армейское командование решает принять меры.
В этой войне Болгария мобилизировала 700 000 армию и потеряла почти 80 000 молодых людей. Воевали еще греки, черногорцы.



Страна: Сербия, Босния-Герцеговина, Болгария
Студия: Radio Televizija Srbije (RTS)
Продолжительность: 01:59:06
Перевод: Авторский, закадровый (Ю.Живов)

Файл
Кодек: XviD
Качество: DVDRip
Видео: 720x304, 1445 kbps, 25 fps
Звук: AC3, 2 ch, 192 kbps, 48.0 khz
General
Complete name : C:/Svjatoy.Georgiy.ubivaet.drakona.2009.XviD.DVDRip.avi
Format : AVI
Format/Info : Audio Video Interleave
File size : 1.37 GiB
Duration : 1h 59mn 06s
Overall bit rate : 1 646 Kbps
Writing application : VirtualDubMod 1.5.10.3 | www.virtualdub-fr.org || (build 2550/release)
Writing library : VirtualDubMod build 2550/release
Video #0
ID : 0
Format : MPEG-4 Visual
Format profile : Advanced Simple@L5
Format settings, BVOP : 2
Format settings, QPel : No
Format settings, GMC : No warppoints
Format settings, Matrix : Default (MPEG)
Codec ID : XVID
Codec ID/Hint : XviD
Duration : 1h 59mn 06s
Bit rate : 1 445 Kbps
Width : 720 pixels
Height : 304 pixels
Display aspect ratio : 2.35:1
Frame rate : 25.000 fps
Color space : YUV
Chroma subsampling : 4:2:0
Bit depth : 8 bits
Scan type : Progressive
Compression mode : Lossy
Bits/(Pixel*Frame) : 0.264
Stream size : 1.20 GiB (88%)
Writing library : XviD 1.2.1 (UTC 2008-12-04)
Audio #1
ID : 1
Format : AC-3
Format/Info : Audio Coding 3
Mode extension : CM (complete main)
Format settings, Endianness : Big
Codec ID : 2000
Duration : 1h 59mn 06s
Bit rate mode : Constant
Bit rate : 192 Kbps
Channel(s) : 2 channels
Channel positions : Front: L R
Sampling rate : 48.0 KHz
Bit depth : 16 bits
Compression mode : Lossy
Stream size : 164 MiB (12%)
Alignment : Split accross interleaves
Interleave, duration : 40 ms (1.00 video frame)
Interleave, preload duration : 500 ms
, , , ,
Релиз от:



Скачать Святой.Георгий.убивает.дракона.Свети.Георгиjе.убива.Аждаху.(Срджан.Драгоевич).[2009.драма.DVDRip].[AVO].torrent без регистрации
Золото ЗОЛОТАЯ РАЗДАЧА! СКАЧАННОЕ НЕ ЗАСЧИТЫВАЕТСЯ! Золото
Дата: Зарегистрирован   [ Тип: внутренний ] Как тут cкачать?
MAGNET ссылка
MAGNET ссылка


Скачать .torrent

14 KB

Статус: проверено DHT
Скачан: торрент - 116 раз, раздача полностью - 12 раз
Размер: 1,37 GB
Оценка:  - (Голосов: 0)
Поблагодарили: 1
Поделиться ссылкой на эту раздачу с друзьями:
В контактеFacebookОдноклассникиTwitterLivejournalМой МирLiveinternet
 

 
Показать сообщения:    


Вы не можете начинать темы
Вы не можете отвечать на сообщения
Вы не можете редактировать свои сообщения
Вы не можете удалять свои сообщения
Вы не можете голосовать в опросах
Вы не можете прикреплять файлы к сообщениям
Вы можете скачивать файлы