Loading...
Error

Скачать Отец для Чарли / A father for Charlie / High Lonesome (Джефф Блекнер) [1995, драма, DVDRip] [VO] + [Sub Rus] + [Original Eng] торрент без регистрации

 
Статистика раздачи
Размер:  1,58 GB   |    Скачан:  151 раз
Сидов:  1  [  0 KB/s  ]  
 
Автор Сообщение

leon030982

[] 

Отец для Чарли / A father for Charlie / High Lonesome


Год выпуска: 1995
Страна: США
Жанр: драма
Продолжительность: 01:29:54
Перевод: Одноголосный закадровый (rost05)
Cубтитры: русские
Оригинальная аудиодорожка: английский

Режиссер: Джефф Блекнер / Jeff Bleckner

В ролях: Луис Госсетт мл., Джозеф Маццелло, Дон Суэйзи, Уильям Фихтнер

Описание: Действие происходит в 30-ые годы XX века в центре США. Одинокий чернокожий фермер Уолтер Осгуд вынужден противостоять расистским настроениям своих соседей. При этом к нему попадает мальчик Чарли, о котором он начинает заботиться, поскольку его настоящий отец, пьяница и расист, бросил его на произвол судьбы.

Качество видео: DVDRip
Формат видео: AVI
Видео: Xvid 720x544 25fps 2114kbps
Аудио: Dolby AC3 48000Hz stereo 192Kbps
Формат субтитров: softsub (SRT)
General
Complete name : F:\My Downloads\A father for Charlie DVDrip\A father for Charlie.avi
Format : AVI
Format/Info : Audio Video Interleave
File size : 1.45 GiB
Duration : 1h 29mn
Overall bit rate : 2 317 Kbps
Writing application : VirtualDubMod 1.5.10.2 (build 2540/release)
Writing library : VirtualDubMod build 2540/release
Video
ID : 0
Format : MPEG-4 Visual
Format profile : Advanced Simple@L5
Format settings, BVOP : Yes
Format settings, QPel : No
Format settings, GMC : No warppoints
Format settings, Matrix : Default (MPEG)
Codec ID : XVID
Codec ID/Hint : XviD
Duration : 1h 29mn
Bit rate : 2 115 Kbps
Width : 720 pixels
Height : 544 pixels
Display aspect ratio : 4:3
Frame rate : 25.000 fps
Color space : YUV
Chroma subsampling : 4:2:0
Bit depth : 8 bits
Scan type : Progressive
Bits/(Pixel*Frame) : 0.216
Stream size : 1.33 GiB (91%)
Writing library : XviD 64
Audio
ID : 1
Format : AC-3
Format/Info : Audio Coding 3
Mode extension : CM (complete main)
Codec ID : 2000
Duration : 1h 29mn
Bit rate mode : Constant
Bit rate : 192 Kbps
Channel(s) : 2 channels
Channel positions : Front: L R
Sampling rate : 48.0 KHz
Bit depth : 16 bits
Stream size : 123 MiB (8%)
Alignment : Split accross interleaves
Interleave, duration : 40 ms (1.00 video frame)
Interleave, preload duration : 500 ms



Скачать Отец.для.Чарли.A.father.for.Charlie.High.Lonesome.(Джефф.Блекнер).[1995.драма.DVDRip].[VO].+.[Sub.Rus].+.[Original.Eng].torrent без регистрации
Золото ЗОЛОТАЯ РАЗДАЧА! СКАЧАННОЕ НЕ ЗАСЧИТЫВАЕТСЯ! Золото
Дата: Зарегистрирован   [ Тип: внутренний ] Как тут cкачать?
MAGNET ссылка
MAGNET ссылка


Скачать .torrent

17 KB

Статус: проверено DHT
Скачан: торрент - 151 раз, раздача полностью - 5 раз
Размер: 1,58 GB
Оценка:  - (Голосов: 0)
Поблагодарили: 0
Поделиться ссылкой на эту раздачу с друзьями:
В контактеFacebookОдноклассникиTwitterLivejournalМой МирLiveinternet
 

 
Показать сообщения:    


Вы не можете начинать темы
Вы не можете отвечать на сообщения
Вы не можете редактировать свои сообщения
Вы не можете удалять свои сообщения
Вы не можете голосовать в опросах
Вы не можете прикреплять файлы к сообщениям
Вы можете скачивать файлы