Loading...
Error

Скачать Убийство 3/ Forbrydelsen 3 (Сезон 3, серии 01-10 из 10) (Миккел Серап, Ганс Фабиан Вулленвебер, Наташа Артю, Кэтрин Уиндфельд) [2012, триллер, драма, криминал, детектив, BDRip] [720p] [MVO] торрент без регистрации

 
Статистика раздачи
Размер:  28,02 GB   |    Скачан:  133 раза
Сидов:  1  [  0 KB/s  ]  
 
Автор Сообщение

leon030982

[] 

Название: Убийство 3
Оригинальное название: Forbrydelsen 3
Год выпуска: 2012
Страна: Дания
Жанр: Триллер, драма, криминал, детектив
Продолжительность: 09 х ~ 00:55:00
Перевод: Профессиональный (многоголосый закадровый) - Baibako
Субтитры: Нет
Режиссер: Наташа Артю, Кэтрин Уиндфельд

В ролях: Софи Гробель, Николай Ли Каас, Стиг Хоффмайер, Олаф Йоханнессен, Джонатан Спанг, Хенрик Бирк, Асбьерн Аггер

Описание: Сериал «Убийство 3» (Forbrydelsen III) третья часть детективных расследований датской полицейской Сары Лунд. Сара пытается перейти на более спокойную работу, но в последний момент ей приходится расследовать якобы случайное убийство моряка и столкнуться с мировым финансовым кризисом.



Перевод: Lub_a
Озвучка: Татьяна Оболевич, Юлия Котурбаш, Алексей Кузнецов, Олекса Мельник
Монтаж: Vitall Digitall
Постер: Татьяна Оболевич

27.02.13 Добавлена финальная 10-я серия


Качество: BDRip 720p
Формат: МКV
Видео кодек: MPEG4
Аудио кодек: AC3
Видео: MPEG-4 AVC, ~ 5000 Кбит/с, 1280x720
Аудио rus: AC3, 6 ch, 384 Кбит/с
Аудио dan: AC3, 6 ch, 448 Кбит/с
Формат : Matroska
Размер файла : 1,13 Гбайт
Продолжительность : 58 м.
Общий поток : 2753 Кбит/сек
Название фильма : BaibaKo.tv presents - Убийство 3x02
Дата кодирования : UTC 2012-12-14 15:07:59
Программа кодирования : mkvmerge v5.8.0 ('No Sleep / Pillow') built on Sep 2 2012 15:37:04
Библиотека кодирования : libebml v1.2.3 + libmatroska v1.3.0

Видео
Идентификатор : 1
Формат : AVC
Формат/Информация : Advanced Video Codec
Профиль формата : High@L4.1
Параметр CABAC формата : Да
Параметр ReFrames формата : 5 кадров
Идентификатор кодека : V_MPEG4/ISO/AVC
Продолжительность : 58 м.
Битрейт : 1866 Кбит/сек
Ширина : 1280 пикс.
Высота : 720 пикс.
Соотношение сторон : 16:9
Частота кадров : 25,000 кадр/сек
Цветовое пространство : YUV
Подвыборка цветности : 4:2:0
Битовая глубина : 8 бит
Тип развёртки : Прогрессивная
Бит/(Пиксели*Кадры) : 0.081
Размер потока : 787 Мбайт (68%)
Библиотека кодирования : x264 core 128 r2216 198a7ea
Настройки программы : cabac=1 / ref=5 / deblock=1:0:0 / analyse=0x3:0x113 / me=umh / subme=8 / psy=1 / psy_rd=1.00:0.00 / mixed_ref=1 / me_range=16 / chroma_me=1 / trellis=1 / 8x8dct=1 / cqm=0 / deadzone=21,11 / fast_pskip=1 / chroma_qp_offset=-2 / threads=12 / lookahead_threads=2 / sliced_threads=0 / nr=0 / decimate=1 / interlaced=0 / bluray_compat=0 / constrained_intra=0 / bframes=3 / b_pyramid=2 / b_adapt=2 / b_bias=0 / direct=3 / weightb=1 / open_gop=0 / weightp=2 / keyint=250 / keyint_min=25 / scenecut=40 / intra_refresh=0 / rc_lookahead=50 / rc=crf / mbtree=1 / crf=19.0 / qcomp=0.60 / qpmin=0 / qpmax=69 / qpstep=4 / ip_ratio=1.40 / aq=1:1.00

Аудио #1
Идентификатор : 2
Формат : AC-3
Формат/Информация : Audio Coding 3
Расширение режима : CM (complete main)
Идентификатор кодека : A_AC3
Продолжительность : 58 м.
Вид битрейта : Постоянный
Битрейт : 384 Кбит/сек
Каналы : 6 каналов
Расположение каналов : Front: L C R, Side: L R, LFE
Частота : 48,0 КГц
Битовая глубина : 16 бит
Метод сжатия : С потерями
Размер потока : 162 Мбайт (14%)
Заголовок : Rus BaibaKo.tv DD5.1
Язык : Russian

Аудио #2
Идентификатор : 3
Формат : AC-3
Формат/Информация : Audio Coding 3
Расширение режима : CM (complete main)
Идентификатор кодека : A_AC3
Продолжительность : 58 м.
Вид битрейта : Постоянный
Битрейт : 448 Кбит/сек
Каналы : 6 каналов
Расположение каналов : Front: L C R, Side: L R, LFE
Частота : 48,0 КГц
Битовая глубина : 16 бит
Метод сжатия : С потерями
Размер потока : 189 Мбайт (16%)
Заголовок : Dan DD5.1
Язык : Danish
Релиз от:



Скачать Убийство.3.Forbrydelsen.3.(Сезон.3.серии.01-10.из.10).(Миккел.Серап.Ганс.Фабиан.Вулленвебер.Наташа.Артю.Кэтрин.Уиндфельд).[2012.триллер.драма.криминал.детектив.BDRip].[720p].[MVO].torrent без регистрации
Золото ЗОЛОТАЯ РАЗДАЧА! СКАЧАННОЕ НЕ ЗАСЧИТЫВАЕТСЯ! Золото
Дата: Зарегистрирован   [ Тип: внутренний ] Как тут cкачать?
MAGNET ссылка
MAGNET ссылка


Скачать .torrent

37 KB

Статус: проверено DHT
Скачан: торрент - 133 раз, раздача полностью - 0 раз
Размер: 28,02 GB
Оценка:  - (Голосов: 0)
Поблагодарили: 0
Поделиться ссылкой на эту раздачу с друзьями:
В контактеFacebookОдноклассникиTwitterLivejournalМой МирLiveinternet
 

 

leon030982

[] 

14.02.13 Добавлена 07 серия
 

leon030982

[] 

Добавлена 08 серия
 

leon030982

[] 

27.02.13 Добавлена финальная 10-я серия
 
Показать сообщения:    


Вы не можете начинать темы
Вы не можете отвечать на сообщения
Вы не можете редактировать свои сообщения
Вы не можете удалять свои сообщения
Вы не можете голосовать в опросах
Вы не можете прикреплять файлы к сообщениям
Вы можете скачивать файлы