Loading...
Error

Скачать Дух мщения / Перехватчик / The Wraith (Майк Марвин) [1986, Фантастика, боевик, триллер, мелодрама, DVDRip-AVC] 2х[MVO] + [DVO] + [AVO] торрент без регистрации

 
Статистика раздачи
Размер:  2,53 GB   |    Скачан:  125 раз
Сидов:  1  [  0 KB/s  ]  
 
Автор Сообщение

leon030982

[] 

Дух мщения / Перехватчик / The Wraith



Год выпуска: 1986
Страна: США
Выпущено: Alliance Communications Corporation, Turbo
Жанр: Фантастика, боевик, триллер, мелодрама
Продолжительность: 01:28:56
Перевод 1: Профессиональный многоголосый (CpDigital, ТВ6)
Перевод 2: Профессиональный двухголосый (ТВ3)
Перевод 3: Авторский одноголосый [Ю.Немахов]
Оригинальная аудиодорожка: Английский
Субтитры: Русские, немецкие
Режиссер: Майк Марвин / Mike Marvin

В ролях: Чарли Шин, Ник Кассаветис, Шерилин Фенн, Рэнди Куэйд, Мэттью Бэрри,
Дэвид Шерилл, Джеми Бозиан, Клинт Ховард, Гриффин О`Нил, Крис Нэш, и др.
Описание: Банда подростков останавливают водителей и заставляют их участвовать в гонках, ставка в которых — машина, принадлежащая несчастным, попавшимся им на пути. Молодой парень, погибший от рук этих бандитов, возвращается с того света в виде призрака на черном гоночном автомобиле и начинает мстить за свою смерть, вызывая подонков на дуэль и убивая их одного за одним…

Качество: DVDRip-AVC
Формат: MKV
Видео кодек: H.264
Аудио кодек: AC3
Видео: AVC; x264; 720х576@1024х576 (16:9), 25,000 кадр/сек, ~2266 кбит/сек, 0.219 bit/pixel
Аудио 1: Rus; AC3; 48,0 КГц; 384 Кбит/сек; 6ch (Front: L C R, Side: L R, LFE) MVO (CpDigital)
Аудио 2: Rus; AC3; 48,0 КГц; 384 Кбит/сек; 6ch (Front: L C R, Side: L R, LFE) MVO (ТВ6)
Аудио 3: Rus; AC3; 48,0 КГц; 192 Кбит/сек; 2ch (Front: L C R, Side: L R, LFE) DVO (ТВ3)
Аудио 4: Rus; AC3; 48,0 КГц; 384 Кбит/сек; 6ch (Front: L C R, Side: L R, LFE) AVO (Немахов)
Аудио 5: Eng; AC3; 48,0 КГц; 384 Кбит/сек; 6ch (Front: L C R, Side: L R, LFE) Оригинал
Рейтинг PG-13 - Детям до 13 лет просмотр не желателен

Настоятельное предупреждение родителям. Данный рейтинг получают фильмы, содержание
которых может считаться неприемлемым для детей, не достигших 13-летнего возраста.
В фильме отсутствуют сцены с насилием и «обнажёнкой», но уже могут присутствовать
неконкретизированные эпизоды с наркотиками и слова, связанные с сексом.
C:\The.Wraith.1986.x264.DVDRip-AVC.mkv
General
Complete name : C:\The.Wraith.1986.x264.DVDRip-AVC.mkv
Format : Matroska
File size : 2.53 GiB
Duration : 1h 28mn
Overall bit rate : 4 075 Kbps
Encoded date : UTC 2011-09-29 10:43:46
Writing application : mkvmerge v4.6.0 ('Still Crazy After All These Years') сборка от Apr 1 2011 21:01:49
Writing library : libebml v1.2.0 + libmatroska v1.1.0
Video #1
ID : 1
Format : AVC
Format/Info : Advanced Video Codec
Format profile : High@L4.1
Format settings, CABAC : Yes
Format settings, ReFrames : 10 frames
Muxing mode : Container profile=Unknown@4.1
Codec ID : V_MPEG4/ISO/AVC
Duration : 1h 28mn
Bit rate : 2 266 Kbps
Nominal bit rate : 2 345 Kbps
Width : 720 pixels
Height : 576 pixels
Display aspect ratio : 16:9
Frame rate : 25.000 fps
Standard : PAL
Resolution : 8 bits
Colorimetry : 4:2:0
Scan type : Progressive
Bits/(Pixel*Frame) : 0.219
Stream size : 1.41 GiB (56%)
Title : Duh mshcheniya / The Wraith
Writing library : x264 core 115 r1937 aa21558
Encoding settings : cabac=1 / ref=10 / deblock=1:-1:-1 / analyse=0x3:0x133 / me=umh / subme=7 / psy=1 / psy_rd=1.00:0.10 / mixed_ref=1 / me_range=16 / chroma_me=1 / trellis=2 / 8x8dct=1 / cqm=0 / deadzone=21,11 / fast_pskip=0 / chroma_qp_offset=-3 / threads=6 / sliced_threads=0 / nr=0 / decimate=1 / interlaced=0 / bluray_compat=0 / constrained_intra=0 / bframes=6 / b_pyramid=2 / b_adapt=2 / b_bias=0 / direct=3 / weightb=1 / open_gop=0 / weightp=2 / keyint=250 / keyint_min=25 / scenecut=40 / intra_refresh=0 / rc_lookahead=50 / rc=2pass / mbtree=1 / bitrate=2345 / ratetol=1.0 / qcomp=0.60 / qpmin=0 / qpmax=69 / qpstep=4 / cplxblur=20.0 / qblur=0.5 / ip_ratio=1.40 / aq=1:1.00
Audio #2
ID : 2
Format : AC-3
Format/Info : Audio Coding 3
Codec ID : A_AC3
Duration : 1h 28mn
Bit rate mode : Constant
Bit rate : 384 Kbps
Channel(s) : 6 channels
Channel positions : Front: L C R, Surround: L R, LFE
Sampling rate : 48.0 KHz
Stream size : 244 MiB (9%)
Title : Zakadrovyi (CpDigital)
Language : Russian
Audio #3
ID : 3
Format : AC-3
Format/Info : Audio Coding 3
Codec ID : A_AC3
Duration : 1h 28mn
Bit rate mode : Constant
Bit rate : 384 Kbps
Channel(s) : 6 channels
Channel positions : Front: L C R, Surround: L R, LFE
Sampling rate : 48.0 KHz
Stream size : 244 MiB (9%)
Title : Zakadrovyi (TV6)
Language : Russian
Audio #4
ID : 4
Format : AC-3
Format/Info : Audio Coding 3
Codec ID : A_AC3
Duration : 1h 28mn
Bit rate mode : Constant
Bit rate : 192 Kbps
Channel(s) : 2 channels
Channel positions : L R
Sampling rate : 48.0 KHz
Stream size : 122 MiB (5%)
Title : Zakadrovyi (TV3)
Language : Russian
Audio #5
ID : 5
Format : AC-3
Format/Info : Audio Coding 3
Codec ID : A_AC3
Duration : 1h 28mn
Bit rate mode : Constant
Bit rate : 384 Kbps
Channel(s) : 6 channels
Channel positions : Front: L C R, Surround: L R, LFE
Sampling rate : 48.0 KHz
Stream size : 244 MiB (9%)
Title : Avtorskii (Nemahov)
Language : Russian
Audio #6
ID : 6
Format : AC-3
Format/Info : Audio Coding 3
Codec ID : A_AC3
Duration : 1h 28mn
Bit rate mode : Constant
Bit rate : 384 Kbps
Channel(s) : 6 channels
Channel positions : Front: L C R, Surround: L R, LFE
Sampling rate : 48.0 KHz
Stream size : 244 MiB (9%)
Title : Original
Text #7
ID : 7
Format : UTF-8
Codec ID : S_TEXT/UTF8
Codec ID/Info : UTF-8 Plain Text
Title : Russkie
Language : Russian
Text #8
ID : 8
Format : UTF-8
Codec ID : S_TEXT/UTF8
Codec ID/Info : UTF-8 Plain Text
Title : Nemetskie
Language : German



Скачать Дух.мщения.Перехватчик.The.Wraith.(Майк.Марвин).[1986.Фантастика.боевик.триллер.мелодрама.DVDRip-AVC].2х[MVO].+.[DVO].+.[AVO].torrent без регистрации
Золото ЗОЛОТАЯ РАЗДАЧА! СКАЧАННОЕ НЕ ЗАСЧИТЫВАЕТСЯ! Золото
Дата: Зарегистрирован   [ Тип: внутренний ] Как тут cкачать?
MAGNET ссылка
MAGNET ссылка


Скачать .torrent

13 KB

Статус: проверено DHT
Скачан: торрент - 125 раз, раздача полностью - 48 раз
Размер: 2,53 GB
Оценка:  5 (Голосов: 2)
Поблагодарили: 1
Поделиться ссылкой на эту раздачу с друзьями:
В контактеFacebookОдноклассникиTwitterLivejournalМой МирLiveinternet
 

 
Показать сообщения:    


Вы не можете начинать темы
Вы не можете отвечать на сообщения
Вы не можете редактировать свои сообщения
Вы не можете удалять свои сообщения
Вы не можете голосовать в опросах
Вы не можете прикреплять файлы к сообщениям
Вы можете скачивать файлы