Loading...
Error

Скачать Красивые девушки / Beautiful Girls (Тэд Дэмми) [1996 г., романтическая комедия, BDRip] [MVO] торрент без регистрации

 
Статистика раздачи
Размер:  1,45 GB   |    Скачан:  140 раз
Сидов:  1  [  0 KB/s  ]  
 
Автор Сообщение

leon030982

[] 

Красивые девушки / Beautiful Girls


Год выпуска: 1996
Страна: США
Жанр: романтическая комедия
Продолжительность: 01:47:58
Перевод: Профессиональный (многоголосый, закадровый)
Русские субтитры: нет

Режиссер: Тэд Дэмми / Ted Demme

В ролях: Тимоти Хаттон/Timothy Hutton, Мэтт Диллон/Matt Dillon, Ноа Эммерих/Noah Emmerich, Рози О'Доннелл/Rosie O'Donnell, Натали Портман/Natalie Portman, Мира Сорвино/Mira Sorvino, Ума Турман/Uma Thurman

Описание: "Я стал совсем не таким парнем, каким представлял себя в школе", - так говорит герой Мэтта Диллона, бывший первым среди всех своих сверстников, а теперь разгребающий снег и занимающийся строительством. Его школьная любовь замужем за другим, и его любит другая. А он... Встреча выпускников в заснеженном захолустном городке, излюбленная тема кинематографистов (все ведь учились в школе), обыграна авторами картины на самом высоком уровне. Им удалось выписать характеры каждого из них в сложной гамме личных взаимоотношений, прослеженных в прошлое, в школьные интриги, дружбу и любовь. Жизнь не всегда складывается так, как ты мечтаешь об этом в -надцать лет, но и начать ее сначала невозможно. Надо постараться сделать что-то хорошее с тем, что осталось. Фильм сверкает блистательным актерским составом, и каждый сыграл свою роль так, как будто играли они самих себя. Меня особенно тронула небольшая сюжетная линия первой детской любви совершенно волшебной тринадцатилетней девочки к приехавшему на встречу несложившемуся пианисту Тимоти Хаттону. Вдумайтесь в глубину сравнения Винни Пуха и Кристофера Робина. А что удалось сделать на экране Уме Турман, хотя появляется-то она всего минут на 15! Один из самых чутких, мудрых и трогательных фильмов, поверьте. (Иванов М.)

IMDB 7.1/10
Награды и номинации.
Кинофестиваль в Сан-Себастьяне – победитель – лучший сценарий –Скотт Розенберг/ Scott Rosenberg, Номинация на Golden Seashell – лучшему режиссёру.

Качество: BDRip(Beautiful Girls [1996.BDRemux.DVO.Eng.Subs]-HQFans.mkv)
Формат:AVI
Видео: 720x384 (1.88:1), 24.000 fps, XviD build 63 ~1385 kbps avg, 0.21 bit/pixel
Аудио: 48 kHz, AC3 Dolby Digital, 3/2 (L,C,R,l,r) + LFE ch, ~448 kbps
General
Complete name : E:\Downloads\Krasivie devushki.chopper887.avi
Format : AVI
Format/Info : Audio Video Interleave
File size : 1.45 GiB
Duration : 1h 52mn
Overall bit rate : 1 843 Kbps
Movie name : Krasivie devushki.chopper887
Director : chopper887
Genre : Romance/Сomedy
Writing application : VirtualDubMod 1.5.10.3 | www.virtualdub-fr.org || (build 2550/release)
Original source form/Name : Movie
Video
ID : 0
Format : MPEG-4 Visual
Format profile : Advanced Simple@L5
Format settings, BVOP : 2
Format settings, QPel : No
Format settings, GMC : No warppoints
Format settings, Matrix : Custom
Codec ID : XVID
Codec ID/Hint : XviD
Duration : 1h 52mn
Bit rate : 1 386 Kbps
Width : 720 pixels
Height : 384 pixels
Display aspect ratio : 1.875
Frame rate : 24.000 fps
Color space : YUV
Chroma subsampling : 4:2:0
Bit depth : 8 bits
Scan type : Progressive
Compression mode : Lossy
Bits/(Pixel*Frame) : 0.209
Stream size : 1.09 GiB (75%)
Writing library : XviD 63
Audio
ID : 1
Format : AC-3
Format/Info : Audio Coding 3
Mode extension : CM (complete main)
Codec ID : 2000
Duration : 1h 52mn
Bit rate mode : Constant
Bit rate : 448 Kbps
Channel(s) : 6 channels
Channel positions : Front: L C R, Side: L R, LFE
Sampling rate : 48.0 KHz
Bit depth : 16 bits
Compression mode : Lossy
Stream size : 361 MiB (24%)
Alignment : Split accross interleaves
Interleave, duration : 42 ms (1.00 video frame)
Interleave, preload duration : 500 ms



Скачать Красивые.девушки.Beautiful.Girls.(Тэд.Дэмми).[1996.г.романтическая.комедия.BDRip].[MVO].torrent без регистрации
Золото ЗОЛОТАЯ РАЗДАЧА! СКАЧАННОЕ НЕ ЗАСЧИТЫВАЕТСЯ! Золото
Дата: Зарегистрирован   [ Тип: внутренний ] Как тут cкачать?
MAGNET ссылка
MAGNET ссылка


Скачать .torrent

15 KB

Статус: проверено DHT
Скачан: торрент - 140 раз, раздача полностью - 31 раз
Размер: 1,45 GB
Оценка:  - (Голосов: 0)
Поблагодарили: 2
Поделиться ссылкой на эту раздачу с друзьями:
В контактеFacebookОдноклассникиTwitterLivejournalМой МирLiveinternet
 

 
Показать сообщения:    


Вы не можете начинать темы
Вы не можете отвечать на сообщения
Вы не можете редактировать свои сообщения
Вы не можете удалять свои сообщения
Вы не можете голосовать в опросах
Вы не можете прикреплять файлы к сообщениям
Вы можете скачивать файлы