Loading...
Error

Скачать Поле битвы - Земля / Battlefield Earth: A Saga of the Year 3000 (Роджер Кристиан) [2000, фантастика, боевик, триллер, DVDRip-AVC] [Dub]+[MVO] торрент без регистрации

 
Статистика раздачи
Размер:  2,95 GB   |    Скачан:  132 раза
Сидов:  1  [  0 KB/s  ]  
 
Автор Сообщение

МихаНЕзатор

[] 

Поле битвы - Земля / Battlefield Earth: A Saga of the Year 3000
Русское название: Поле битвы - Земля
Оригинальное название: Battlefield Earth: A Saga of the Year 3000
Год выпуска: 2000
Жанр: фантастика, боевик, триллер
Режиссер: Роджер Кристиан / Roger Christian
Актеры: Джон Траволта , Бэрри Пеппер , Форест Уитакер , Ким Коутс , Сабина Карсенти , Майкл Бирн , Кристиан Тессьер , Сильвен Ландри , Ричард Тайсон , Кристофер Фриман
Описание фильма:
3000 год. Уже десять веков Землей правит жестокая раса пришельцев. Поработив людей, гиганты Сайклосы превратили завоеванную планету в источник сырья для своего далекого мира. Избежавшие смерти и рабства земляне первобытными племенами рассеялись по горам и лесам. Но однажды, получив доступ к оружию и технологиям пришельцев, они поднимают восстание. Начинается новая звездная война, в которой одна из цивилизаций обречена на уничтожение
Производство: США
Продолжительность: 01:52:51
Перевод: Дублированный, Профессиональный (многоголосый, закадровый)
+ оригинальная звуковая дорожка
Язык субтитров: Русские, Английские
Дата мировой премьеры: 10 мая 2000
Дата российской премьеры: 28 июня 2000

Качество: DVDRip-AVC
Видео: 1024x432,~2589 kbps, 25,000 кадров/сек
Аудио: 48 kHz, AC3 Dolby Digital, 3/2 (L,C,R,l,r) + LFE ch, ~384 kbps Дубляж (лицензия Pyramid Video)
Аудио: 48 kHz, AC3 Dolby Digital, 3/2 (L,C,R,l,r) + LFE ch, ~384 kbps Профессиональный (многоголосый).
Аудио: 48 kHz, AC3 Dolby Digital, 3/2 (L,C,R,l,r) + LFE ch, ~384 kbps Английский
Релиз: NNM-Club
Формат : Matroska
Версия формата : Version 2
Размер файла : 2,95 Гбайт
Продолжительность : 1 ч. 53 м.
Общий поток : 3713 Кбит/сек
Название фильма : (2000) Поле битвы - Земля
Дата кодирования : UTC 2012-05-09 11:29:12
Программа кодирования : mkvmerge v5.2.1 ('A Far Off Place') built on Jan 2 2012 23:21:10
Библиотека кодирования : libebml v1.2.3 + libmatroska v1.3.0

Видео
Идентификатор : 1
Формат : AVC
Формат/Информация : Advanced Video Codec
Профиль формата : High@L4.1
Параметр CABAC формата : Да
Параметр ReFrames формата : 8 кадров
Режим смешивания : Header stripping
Идентификатор кодека : V_MPEG4/ISO/AVC
Продолжительность : 1 ч. 53 м.
Битрейт : 2589 Кбит/сек
Ширина : 1024 пикселя
Высота : 432 пикселя
Соотношение сторон : 2,35:1
Частота кадров : 25,000 кадров/сек
Цветовое пространство : YUV
Субдискретизация насыщенности : 4:2:0
Битовая глубина : 8 бит
Тип развёртки : Прогрессивная
Бит/(Пиксели*Кадры) : 0.234
Размер потока : 1,98 Гбайт (67%)
Библиотека кодирования : x264 core 119 r2106 07efeb4
Настройки программы : cabac=1 / ref=8 / deblock=1:-1:0 / analyse=0x3:0x113 / me=tesa / subme=9 / psy=1 / psy_rd=0.40:0.00 / mixed_ref=1 / me_range=24 / chroma_me=1 / trellis=2 / 8x8dct=1 / cqm=0 / deadzone=21,11 / fast_pskip=0 / chroma_qp_offset=-2 / threads=6 / sliced_threads=0 / nr=0 / decimate=1 / interlaced=0 / bluray_compat=0 / constrained_intra=0 / bframes=4 / b_pyramid=2 / b_adapt=2 / b_bias=0 / direct=3 / weightb=1 / open_gop=0 / weightp=2 / keyint=250 / keyint_min=25 / scenecut=40 / intra_refresh=0 / rc_lookahead=60 / rc=2pass / mbtree=1 / bitrate=2589 / ratetol=1.0 / qcomp=0.70 / qpmin=0 / qpmax=69 / qpstep=4 / cplxblur=20.0 / qblur=0.5 / vbv_maxrate=17500 / vbv_bufsize=14000 / nal_hrd=none / ip_ratio=1.40 / aq=1:0.60

Аудио #1
Идентификатор : 2
Формат : AC-3
Формат/Информация : Audio Coding 3
Расширение режима : CM (complete main)
Режим смешивания : Header stripping
Идентификатор кодека : A_AC3
Продолжительность : 1 ч. 53 м.
Вид битрейта : Постоянный
Битрейт : 384 Кбит/сек
Каналы : 6 каналов
Расположение каналов : Front: L C R, Side: L R, LFE
Частота : 48,0 КГц
Битовая глубина : 16 бит
Метод сжатия : С потерями
Задержка видео : 1 с. 0 мс.
Размер потока : 312 Мбайт (10%)
Заголовок : Профессиональный (полное дублирование)
Язык : Russian

Аудио #2
Идентификатор : 3
Формат : AC-3
Формат/Информация : Audio Coding 3
Расширение режима : CM (complete main)
Режим смешивания : Header stripping
Идентификатор кодека : A_AC3
Продолжительность : 1 ч. 53 м.
Вид битрейта : Постоянный
Битрейт : 384 Кбит/сек
Каналы : 6 каналов
Расположение каналов : Front: L C R, Side: L R, LFE
Частота : 48,0 КГц
Битовая глубина : 16 бит
Метод сжатия : С потерями
Задержка видео : 1 с. 0 мс.
Размер потока : 312 Мбайт (10%)
Заголовок : Профессиональный (многоголосый, закадровый)
Язык : Russian

Аудио #3
Идентификатор : 4
Формат : AC-3
Формат/Информация : Audio Coding 3
Расширение режима : CM (complete main)
Режим смешивания : Header stripping
Идентификатор кодека : A_AC3
Продолжительность : 1 ч. 53 м.
Вид битрейта : Постоянный
Битрейт : 384 Кбит/сек
Каналы : 6 каналов
Расположение каналов : Front: L C R, Side: L R, LFE
Частота : 48,0 КГц
Битовая глубина : 16 бит
Метод сжатия : С потерями
Задержка видео : 1 с. 0 мс.
Размер потока : 312 Мбайт (10%)
Заголовок : Оригинальный
Язык : English

Текст #1
Идентификатор : 5
Формат : UTF-8
Идентификатор кодека : S_TEXT/UTF8
Идентификатор кодека/Информация : UTF-8 Plain Text
Заголовок : Русские
Язык : Russian

Текст #2
Идентификатор : 6
Формат : UTF-8
Идентификатор кодека : S_TEXT/UTF8
Идентификатор кодека/Информация : UTF-8 Plain Text
Заголовок : Английские
Язык : English



Скачать Поле.битвы.-.Земля.Battlefield.Earth.A.Saga.of.the.Year.3000.(Роджер.Кристиан).[2000.фантастика.боевик.триллер.DVDRip-AVC].[Dub]+[MVO].torrent без регистрации
Золото ЗОЛОТАЯ РАЗДАЧА! СКАЧАННОЕ НЕ ЗАСЧИТЫВАЕТСЯ! Золото
Дата: Зарегистрирован   [ Тип: внутренний ] Как тут cкачать?
MAGNET ссылка
MAGNET ссылка


Скачать .torrent

15 KB

Статус: проверено DHT
Скачан: торрент - 132 раз, раздача полностью - 105 раз
Размер: 2,95 GB
Оценка:  5 (Голосов: 1)
Поблагодарили: 1
Поделиться ссылкой на эту раздачу с друзьями:
В контактеFacebookОдноклассникиTwitterLivejournalМой МирLiveinternet
 

 
Показать сообщения:    


Вы не можете начинать темы
Вы не можете отвечать на сообщения
Вы не можете редактировать свои сообщения
Вы не можете удалять свои сообщения
Вы не можете голосовать в опросах
Вы не можете прикреплять файлы к сообщениям
Вы можете скачивать файлы