Loading...
Error

Скачать Страх / Fear (Джеймс Фоули) [1996, триллер, драма, BDRip] [DUB] торрент без регистрации

 
Статистика раздачи
Размер:  1,46 GB   |    Скачан:  134 раза
Сидов:  1  [  0 KB/s  ]  
 
Автор Сообщение

leon030982

[] 

Страх / Fear


Год выпуска: 1996
Страна: США
Жанр: триллер, драма
Продолжительность: 01:36:50
Перевод: Профессиональный (дублированный)
Cубтитры: нет
Оригинальная аудиодорожка: нет

Режиссер: Джеймс Фоули / James Foley

В ролях: Марк Уолберг (David McCall), Риз Уизерспун (Nicole Walker), Уильям Л. Питерсен (Steve Walker), Эми Бреннеман (Laura Walker), Алисса Милано (Margo Masse), Кристофер Грэй (Toby), Трэйси Фрэйм (Logan), Гари Райли (Hacker), Джейсон Кристофер (Terry), Джед Риис (Knobby), Тодд Калдекотт (Gary Rohmer), Джон Оливер (Eddie Clark)

Описание: Шестнадцатилетняя белокурая красавица Николь идет с подругой в ночной клуб и знакомится там с обаятельным и сексуальным парнем по имени Дэвид. Вскоре невинная первая любовь превращается в одержимость, а Николь становится заложницей агрессивной страсти Дэвида, склонного к припадкам беспричинной ревности.
Дэвид избивает друга только за то, что он прошелся с Николь по улице; а когда Николь пытается разорвать отношения с юным тираном, он полностью теряет контроль над своими действиями...


Сэмпл
Качество видео: BDRip [Исходник: Blu-Ray EUR]
Формат видео: AVI
Видео: XviD, 720x304 (2.368:1), 23.976 fps, ~1 697 Kbps
Аудио: AC3, 48.0 KHz, 448 Kbps, 6 channels
General
Complete name : Fear.1996.BDRip.XviD.AC3.Dub.avi
Format : AVI
Format/Info : Audio Video Interleave
File size : 1.46 GiB
Duration : 1h 36mn
Overall bit rate : 2 155 Kbps
Movie name : Fear (1996)
Director : sergwk
Genre : Drama / Horror / Thriller
Writing application : VirtualDubMod 1.5.10.3 (build 2550/release)
Writing library : VirtualDubMod build 2550/release
Comment : BDRip [BD EUR]
Video
ID : 0
Format : MPEG-4 Visual
Format profile : Advanced Simple@L5
Format settings, BVOP : 1
Format settings, QPel : No
Format settings, GMC : No warppoints
Format settings, Matrix : Custom
Codec ID : XVID
Codec ID/Hint : XviD
Duration : 1h 36mn
Bit rate : 1 697 Kbps
Width : 720 pixels
Height : 304 pixels
Display aspect ratio : 2.35:1
Frame rate : 23.976 fps
Color space : YUV
Chroma subsampling : 4:2:0
Bit depth : 8 bits
Scan type : Progressive
Compression mode : Lossy
Bits/(Pixel*Frame) : 0.323
Stream size : 1.15 GiB (79%)
Writing library : XviD 1.2.1 (UTC 2008-12-04)
Audio
ID : 1
Format : AC-3
Format/Info : Audio Coding 3
Mode extension : CM (complete main)
Format settings, Endianness : Big
Codec ID : 2000
Duration : 1h 36mn
Bit rate mode : Constant
Bit rate : 448 Kbps
Channel(s) : 6 channels
Channel positions : Front: L C R, Side: L R, LFE
Sampling rate : 48.0 KHz
Bit depth : 16 bits
Compression mode : Lossy
Stream size : 310 MiB (21%)
Alignment : Split accross interleaves
Interleave, duration : 42 ms (1.00 video frame)
Interleave, preload duration : 500 ms
Title : RUS [DUB, BD EUR]



Скачать Страх.Fear.(Джеймс.Фоули).[1996.триллер.драма.BDRip].[DUB].torrent без регистрации
Золото ЗОЛОТАЯ РАЗДАЧА! СКАЧАННОЕ НЕ ЗАСЧИТЫВАЕТСЯ! Золото
Дата: Зарегистрирован   [ Тип: внутренний ] Как тут cкачать?
MAGNET ссылка
MAGNET ссылка


Скачать .torrent

15 KB

Статус: проверено DHT
Скачан: торрент - 134 раз, раздача полностью - 100 раз
Размер: 1,46 GB
Оценка:  - (Голосов: 0)
Поблагодарили: 0
Поделиться ссылкой на эту раздачу с друзьями:
В контактеFacebookОдноклассникиTwitterLivejournalМой МирLiveinternet
 

 
Показать сообщения:    


Вы не можете начинать темы
Вы не можете отвечать на сообщения
Вы не можете редактировать свои сообщения
Вы не можете удалять свои сообщения
Вы не можете голосовать в опросах
Вы не можете прикреплять файлы к сообщениям
Вы можете скачивать файлы