Loading...
Error

Скачать Хэйвен / Haven (Полный 3-ий сезон) (Тим Соутэм, Рейчел Тэлалей) [2012, мистика, драма, детектив, WEB-DL] [1080p] [MVO] (BaibaKo) + [DVO] (Кубик в Кубе) + Original + Eng, Rus Subs (Notabenoid) торрент без регистрации

 
Статистика раздачи
Размер:  24,76 GB   |    Скачан:  557 раз

Полного источника не было: 27 минут

 
Автор Сообщение

leon030982

[] 

Хэйвен / Haven


Год выпуска: 2012
Страна: Канада
Жанр: мистика, драма, детектив
Продолжительность: ~ 00:43:00
Перевод 1: Профессиональный (многоголосый, закадровый) BaibaKo
Перевод 2: Профессиональный (двухголосый, закадровый) Кубик в Кубе при поддержке HDOUT
Субтитры: русские (Notabenoid by Grenada), английские

Режиссер: Тим Соутэм, Т.У. Пикок, Рейчел Тэлалей
В ролях: Эмили Роуз, Лукас Брайант, Эрик Бальфур, Ричард Донат, Джон Дансуорт, Николас Кэмпбелл, Стивен МакХэтти, Винесса Антуан, Мэри-Колин Чишолм и др.
Описание: За основу взят сюжет из книги Стивена Кинга "The Colorado Kid" ("Дитя Колорадо"). В маленький город Хейвен приезжает агент ФБР Одри Паркер, чтобы расследовать смерть бывшего преступника. Из-за своего природного любопытства она попала в эпицентр этого необычного анклава, который, оказывается, издавна служил пристанищем для людей со сверхспособностями. Среди местных жителей города полицейский Натан Вурно, который стал напарником Одри, и загадочный и обаятельный мастер на все руки Дюк Крокер.
| Сэмпл
Качество: WEB-DL [1080p]
Формат: MKV
Видео кодек: AVC
Аудио кодек: AC-3
Видео: 1916x1076,1916x1078 (16:9), 23.976 fps, ~5000 Kbps avg, 0.100 bit/pixel
Аудио 1: 48 KHz, 6 ch, 384 Kbps - BaibaKo
Аудио 2: 48 KHz, 6 ch, 384 Kbps - Кубик в Кубе
Аудио 3: 48 KHz, 6 ch, 384 Kbps - Original

Перевод: Татьяна Saavick
Озвучка: Светлана Доманова, Татьяна Оболевич, Александр Фурман и Алексей Кузнецов
&
Перевод: Анастасия Киселенко
Озвучка: Ольга Кравцова, Руслан Габидуллин
Работа со звуком: ЛП
301
Stay / Питомник
The Farmer / Фермер
Double Jeopardy / Двойное наказание
Over My Head / Полное погружение
Real Estate / Недвижимость
Magic Hour Part 1 / Час чуда часть 1
Magic Hour Part 2 / Час чуда часть 2
Sarah / Сара
Burned / Сожжённые
Last Goodbyes / Последнее прощай
Общее
Полное имя : Haven Season 3 1080p\Haven.S03E06.Real.Estate.1080p.WEB-DL.Rus.Eng.mkv
Формат : Matroska
Версия формата : Version 2
Размер файла : 1,93 Гбайт
Продолжительность : 42 м.
Общий поток : 6420 Кбит/сек
Название фильма : Хэйвен 3x06 Недвижимость
Дата кодирования : UTC 2012-12-09 09:53:17
Программа кодирования : mkvmerge v5.8.0 ('No Sleep / Pillow') built on Sep 2 2012 15:37:04
Библиотека кодирования : libebml v1.2.3 + libmatroska v1.3.0
Видео
Идентификатор : 1
Формат : AVC
Формат/Информация : Advanced Video Codec
Профиль формата : High@L4.0
Параметр CABAC формата : Да
Параметр ReFrames формата : 4 кадра
Идентификатор кодека : V_MPEG4/ISO/AVC
Продолжительность : 42 м.
Битрейт : 5140 Кбит/сек
Ширина : 1916 пикселей
Высота : 1078 пикселей
Соотношение сторон : 16:9
Соотношение сторон в оригинале : 16:9
Режим частоты кадров : Постоянный
Частота кадров : 23,976 кадра/сек
Цветовое пространство : YUV
Субдискретизация насыщенности : 4:2:0
Битовая глубина : 8 бит
Тип развёртки : Прогрессивная
Бит/(Пиксели*Кадры) : 0.104
Размер потока : 1,54 Гбайт (80%)
Язык : English
Default : Да
Forced : Нет
Основные цвета : BT.709
Характеристики трансфера : BT.709
Коэффициенты матрицы : BT.709
Аудио #1
Идентификатор : 2
Формат : AC-3
Формат/Информация : Audio Coding 3
Расширение режима : CM (complete main)
Параметр Endianness формата : Big
Идентификатор кодека : A_AC3
Продолжительность : 42 м.
Вид битрейта : Постоянный
Битрейт : 384 Кбит/сек
Каналы : 6 каналов
Расположение каналов : Front: L C R, Side: L R, LFE
Частота : 48,0 КГц
Битовая глубина : 16 бит
Метод сжатия : С потерями
Размер потока : 118 Мбайт (6%)
Заголовок : BaibaKo
Язык : Russian
Default : Да
Forced : Нет
Аудио #2
Идентификатор : 3
Формат : AC-3
Формат/Информация : Audio Coding 3
Расширение режима : CM (complete main)
Параметр Endianness формата : Big
Идентификатор кодека : A_AC3
Продолжительность : 42 м.
Вид битрейта : Постоянный
Битрейт : 384 Кбит/сек
Каналы : 6 каналов
Расположение каналов : Front: L C R, Side: L R, LFE
Частота : 48,0 КГц
Битовая глубина : 16 бит
Метод сжатия : С потерями
Размер потока : 118 Мбайт (6%)
Заголовок : Кубик в Кубе
Язык : Russian
Default : Нет
Forced : Нет
Аудио #3
Идентификатор : 4
Формат : AC-3
Формат/Информация : Audio Coding 3
Расширение режима : CM (complete main)
Параметр Endianness формата : Big
Идентификатор кодека : A_AC3
Продолжительность : 42 м.
Вид битрейта : Постоянный
Битрейт : 384 Кбит/сек
Каналы : 6 каналов
Расположение каналов : Front: L C R, Side: L R, LFE
Частота : 48,0 КГц
Битовая глубина : 16 бит
Метод сжатия : С потерями
Размер потока : 118 Мбайт (6%)
Заголовок : Original
Язык : English
Default : Нет
Forced : Нет
Текст #1
Идентификатор : 5
Формат : UTF-8
Идентификатор кодека : S_TEXT/UTF8
Идентификатор кодека/Информация : UTF-8 Plain Text
Заголовок : Notabenoid
Язык : Russian
Default : Нет
Forced : Нет
Текст #2
Идентификатор : 6
Формат : UTF-8
Идентификатор кодека : S_TEXT/UTF8
Идентификатор кодека/Информация : UTF-8 Plain Text
Заголовок : Addic7ed
Язык : English
Default : Нет
Forced : Нет
Внимание! Раздача ведётся путём добавления новых серий; при каждом добавлении создаётся новый торрент. Чтобы начать докачку новой серии, пользователям необходимо сделать следующее:
(1) остановить скачивание,
(2) удалить старый торрент у себя из клиента (старые серии удалять не надо),
(3) скачать новый торрент и запустить его у себя в клиенте вместо старого, при этом указать клиенту путь в старую папку куда и должно происходить скачивание новых серий.
Ваш клиент при этом должен произвести хеширование (проверку) старой папки (если не производит сам - помогите ему сделать это), и будет докачивать только те серии которых у вас ещё нет. Старые серии при этом не удаляются, а продолжают раздаваться!
Eсли вы уже удалили старые серии, то предотвратить повторную закачку старых серий можно, отжав галочку в соответсвующих местах при запуске нового торрента. По возможности, желательно не удалять старые серии как можно дольше чтобы релизёр не столько продолжал раздавать старые серии, а смог сконцентрироваться на новых.



Скачать Хэйвен.Haven.(Полный.3-ий.сезон).(Тим.Соутэм.Рейчел.Тэлалей).[2012.мистика.драма.детектив.WEB-DL].[1080p].[MVO].(BaibaKo).+.[DVO].(Кубик.в.Кубе).+.Original.+.Eng.Rus.Subs.(Notabenoid).torrent без регистрации
Золото ЗОЛОТАЯ РАЗДАЧА! СКАЧАННОЕ НЕ ЗАСЧИТЫВАЕТСЯ! Золото
Дата: Зарегистрирован   [ Тип: внутренний ] Как тут cкачать?
MAGNET ссылка
MAGNET ссылка


Скачать .torrent

125 KB

Статус: проверено DHT
Скачан: торрент - 557 раз, раздача полностью - 0 раз
Размер: 24,76 GB
Оценка:  - (Голосов: 0)
Поблагодарили: 0
Поделиться ссылкой на эту раздачу с друзьями:
В контактеFacebookОдноклассникиTwitterLivejournalМой МирLiveinternet
 

 

leon030982

[] 

обновлено
 
Показать сообщения:    


Вы не можете начинать темы
Вы не можете отвечать на сообщения
Вы не можете редактировать свои сообщения
Вы не можете удалять свои сообщения
Вы не можете голосовать в опросах
Вы не можете прикреплять файлы к сообщениям
Вы можете скачивать файлы