Loading...
Error

Скачать Городок / The Town (Сезон 1, серии 01-03 из 03) (Колин Тига / Colin Teague) [2012, драма, детектив, HDTVRip] [MVO] (ViruseProject) торрент без регистрации

 
Статистика раздачи
Размер:  1,33 GB   |    Скачан:  132 раза
Сидов:  1  [  0 KB/s  ]  
 
Автор Сообщение

leon030982

[] 

Городок / The Town (Сезон 1, серии 01-03 из 03)


Год выпуска: 2012
Страна: Великобритания
Жанр: драма, детектив
Продолжительность: 00:47:00
Перевод: Любительский (многоголосый закадровый) ViruseProject
Русские субтитры: нет

Режиссёр: Колин Тига / Colin Teague

В ролях: Эндрю Скотт, Джулия МакКензи, Шарлотта Райли, авигай Тлалим, Келли Адамс, Эйслинг Беа, Сэм Тротон, Мартин Клунес, Голди Нотай, Тоби Регбо и др.

Описание: Марку 30 лет, он вернулся в родной городок из-за трагедии произошедшей в семье - родители покончили жизнь самоубийством. В городке своем он не был 10 лет, и возвращаться нелегко. Прошлая жизнь – школьные друзья, первая любовь, непонятно убили родители себя сами или им, кто помог – затягивает Марка, и ему приходится выбирать: уехать или остаться в этом маленьком городке навсегда.



Релиз:
Над релизом трудились:
Озвучка:
*Solncekleshka (Татьяна Романовская)
*marviha (Марина Видякина)
*Lalusha (Алла Блаер)
*Pro-Snip (Дмитрий Иванов )
*IgVin (Игорь Головин)
*Дмитрий Кравченко
Перевод: darkling и teattack
Монтаж, сведение звука: viruse (Виталий Емельянов)
Видео приготовил: viruse (Виталий Емельянов)

скачать СЕМПЛ с multi-up
Качество: HDTVRip
Формат: AVI
Видео кодек: XviD
Аудио кодек: MP3
Видео: 720x400 (1.80:1), 25 fps, XviD build 50 ~1205 kbps avg, 0.17 bit/pixel
Аудио: 48 kHz, MPEG Layer 3, 2 ch, ~128.00 kbps avg
D:\ОЗВУЧКА\ГОТОВОЕ\СЕРИАЛЫ\The.Town.S01.ViruseProject\The.Town.S01E01.ViruseProject.avi
General
Complete name : D:\ОЗВУЧКА\ГОТОВОЕ\СЕРИАЛЫ\The.Town.S01.ViruseProject\The.Town.S01E01.ViruseProject.avi
Format : AVI
Format/Info : Audio Video Interleave
File size : 453 MiB
Duration : 47mn 9s
Overall bit rate : 1 343 Kbps
Writing application : VirtualDubMod 1.5.10.2 (build 2540/release)
Writing library : VirtualDubMod build 2540/release
Video #0
ID : 0
Format : MPEG-4 Visual
Format profile : Advanced Simple@L5
Format settings, BVOP : 1
Format settings, QPel : No
Format settings, GMC : No warppoints
Format settings, Matrix : Default (MPEG)
Codec ID : XVID
Codec ID/Hint : XviD
Duration : 47mn 9s
Bit rate : 1 206 Kbps
Width : 720 pixels
Height : 400 pixels
Display aspect ratio : 16:9
Frame rate : 25.000 fps
Color space : YUV
Chroma subsampling : 4:2:0
Bit depth : 8 bits
Scan type : Progressive
Compression mode : Lossy
Bits/(Pixel*Frame) : 0.167
Stream size : 407 MiB (90%)
Writing library : XviD 1.2.1 (UTC 2008-12-04)
Audio #1
ID : 1
Format : MPEG Audio
Format version : Version 1
Format profile : Layer 3
Codec ID : 55
Codec ID/Hint : MP3
Duration : 47mn 9s
Bit rate mode : Constant
Bit rate : 128 Kbps
Channel(s) : 2 channels
Sampling rate : 48.0 KHz
Compression mode : Lossy
Stream size : 43.2 MiB (10%)
Alignment : Aligned on interleaves
Interleave, duration : 40 ms (1.00 video frame)
Interleave, preload duration : 504 ms
Writing library : LAME3.98r
Encoding settings : -m s -V 4 -q 2 -lowpass 17 -b 128
Внимание! Раздача ведётся путём добавления новых серий; при каждом добавлении создётся новый торрент. Чтобы начать докачку новой серии, пользователям необходимо сделать следующее:
(1) остановить скачивание,
(2) удалить старый торрент у себя из клиента (старые серии удалять не надо),
(3) скачать новый торрент и запустить его у себя в клиенте вместо старого, при этом указать клиенту путь в старую папку куда и должно происходить скачивание новых серий.
Ваш клиент при этом должен произвести хеширование (проверку) старой папки (если не производит сам - помогите ему сделать это), и будет докачивать только те серии которых у вас ещё нет. Старые серии при этом не удаляются, а продолжают раздаваться!
Eсли вы уже удалили старые серии, то предотвратить повторную закачку старых серий можно, отжав галочку в соответсвующих местах при запуске нового торрента.




Скачать Городок.The.Town.(Сезон.1.серии.01-03.из.03).(Колин.Тига.Colin.Teague).[2012.драма.детектив.HDTVRip].[MVO].(ViruseProject).torrent без регистрации
Золото ЗОЛОТАЯ РАЗДАЧА! СКАЧАННОЕ НЕ ЗАСЧИТЫВАЕТСЯ! Золото
Дата: Зарегистрирован   [ Тип: внутренний ] Как тут cкачать?
MAGNET ссылка
MAGNET ссылка


Скачать .torrent

14 KB

Статус: проверено DHT
Скачан: торрент - 132 раз, раздача полностью - 9 раз
Размер: 1,33 GB
Оценка:  5 (Голосов: 1)
Поблагодарили: 1
Поделиться ссылкой на эту раздачу с друзьями:
В контактеFacebookОдноклассникиTwitterLivejournalМой МирLiveinternet
 

 
Показать сообщения:    


Вы не можете начинать темы
Вы не можете отвечать на сообщения
Вы не можете редактировать свои сообщения
Вы не можете удалять свои сообщения
Вы не можете голосовать в опросах
Вы не можете прикреплять файлы к сообщениям
Вы можете скачивать файлы