Loading...
Error

Скачать Городок / The Town (Сезон 1, серии 01-03 из 03) (Колин Тига) [2012, драма, детектив, HDTVRip-AVC] [Original] + [rus subs] (darkling и teattack) торрент без регистрации

 
Статистика раздачи
Размер:  780 MB   |    Скачан:  113 раз

Полного источника не было: 22 минуты

 
Автор Сообщение

leon030982

[] 

Городок / The Town (Сезон 1, серии 01-03 из 03)

Год выпуска: 2012
Страна: Великобритания
Жанр: драма, детектив
Продолжительность: ~ 45мин.
Перевод: Субтитры
Автор перевода: darkling и teattack
Режиссёр: Колин Тига
В ролях: Эндрю Скотт, Джулия МакКензи, Шарлотта Райли, Avigail Tlalim, Келли Адамс, Эйслинг Беа, Сэм Тротон, Мартин Клунес, Голди Нотай и Тоби Регбо.
Описание: Марку 30 лет, он вернулся в родной городок из-за трагедии произошедшей в семье. Но он не был тут 10 лет, и возвращаться нелегко. Мэр влиятельный человек, а от ощущения, что все всё знают друг про друга становится жутко. Прошлая жизнь – школьные друзья, первая любовь – затягивает Марка, и ему приходится выбирать: уехать или остаться в этом маленьком городке навсегда.


Скачать: Sample
Качество: HDTVRip-AVC
Формат: MP4
Видео кодек: AVC
Аудио кодек: AAC
Видео: AVC, 720x404, 25 fps, 692 kbps, 0.095 bit/pixel
Аудио: AAC, 48 kHz, 2 ch, 116 kbps
Видео
Идентификатор : 1
Формат : AVC
Формат/Информация : Advanced Video Codec
Профиль формата : High@L3.1
Параметр CABAC формата : Да
Параметр ReFrames формата : 5 кадров
Идентификатор кодека : avc1
Идентификатор кодека/Информация : Advanced Video Coding
Продолжительность : 46 м.
Битрейт : 692 Кбит/сек
Максимальный битрейт : 5217 Кбит/сек
Ширина : 720 пикселей
Высота : 404 пикселя
Соотношение сторон : 16:9
Режим частоты кадров : Постоянный
Частота кадров : 25,000 кадров/сек
Цветовое пространство : YUV
Субдискретизация насыщенности : 4:2:0
Битовая глубина : 8 бит
Тип развёртки : Прогрессивная
Бит/(Пиксели*Кадры) : 0.095
Размер потока : 232 Мбайт (85%)
Заголовок : Video
Библиотека кодирования : x264 core 129 r2230 1cffe9f
Настройки программы : cabac=1 / ref=5 / deblock=1:-1:-1 / analyse=0x3:0x113 / me=umh / subme=8 / psy=1 / psy_rd=1.00:0.15 / mixed_ref=1 / me_range=16 / chroma_me=1 / trellis=1 / 8x8dct=1 / cqm=0 / deadzone=21,11 / fast_pskip=1 / chroma_qp_offset=-3 / threads=12 / lookahead_threads=2 / sliced_threads=0 / nr=0 / decimate=1 / interlaced=0 / bluray_compat=0 / constrained_intra=0 / bframes=3 / b_pyramid=2 / b_adapt=2 / b_bias=0 / direct=3 / weightb=1 / open_gop=0 / weightp=2 / keyint=250 / keyint_min=25 / scenecut=40 / intra_refresh=0 / rc_lookahead=50 / rc=crf / mbtree=1 / crf=20.0 / qcomp=0.60 / qpmin=0 / qpmax=69 / qpstep=4 / ip_ratio=1.40 / aq=1:1.00
Дата кодирования : UTC 2012-12-05 22:30:00
Дата пометки : UTC 2012-12-05 22:30:03
Коэффициенты матрицы : BT.709
Аудио
Идентификатор : 2
Формат : AAC
Формат/Информация : Advanced Audio Codec
Профиль формата : LC
Идентификатор кодека : 40
Продолжительность : 46 м.
Вид битрейта : Переменный
Битрейт : 116 Кбит/сек
Максимальный битрейт : 157 Кбит/сек
Каналы : 2 канала
Расположение каналов : Front: L R
Частота : 48,0 КГц
Метод сжатия : С потерями
Задержка видео : 32 мс.
Размер потока : 39,1 Мбайт (14%)
Заголовок : Ì
Язык : English
Дата кодирования : UTC 2012-12-05 22:30:02
Дата пометки : UTC 2012-12-05 22:30:03



Скачать Городок.The.Town.(Сезон.1.серии.01-03.из.03).(Колин.Тига).[2012.драма.детектив.HDTVRip-AVC].[Original].+.[rus.subs].(darkling.и.teattack).torrent без регистрации
Золото ЗОЛОТАЯ РАЗДАЧА! СКАЧАННОЕ НЕ ЗАСЧИТЫВАЕТСЯ! Золото
Дата: Зарегистрирован   [ Тип: внутренний ] Как тут cкачать?
MAGNET ссылка
MAGNET ссылка


Скачать .torrent

16 KB

Статус: проверено DHT
Скачан: торрент - 113 раз, раздача полностью - 2 раз
Размер: 780 MB
Оценка:  - (Голосов: 0)
Поблагодарили: 1
Поделиться ссылкой на эту раздачу с друзьями:
В контактеFacebookОдноклассникиTwitterLivejournalМой МирLiveinternet
 

 
Показать сообщения:    


Вы не можете начинать темы
Вы не можете отвечать на сообщения
Вы не можете редактировать свои сообщения
Вы не можете удалять свои сообщения
Вы не можете голосовать в опросах
Вы не можете прикреплять файлы к сообщениям
Вы можете скачивать файлы