Loading...
Error

Скачать Записки юного врача / A Young Doctor's Notebook (Сезон 1, серии 01-04 из 04) (Алекс Хардкэсл / Alex Hardcastle) [2012, Драма, комедия, экранизация, HDTV] [1080i] [DVO](Ozz) + Original торрент без регистрации

 
Статистика раздачи
Размер:  7,93 GB   |    Скачан:  148 раз
Сидов:  1  [  0 KB/s  ]  
 
Автор Сообщение

leon030982

[] 

Записки юного врача / A Young Doctor's Notebook

Год выпуска: 2012
Страна: Великобритания / Big Talk Productions
Жанр: Драма, комедия, экранизация
Продолжительность: ~00:25:00
Перевод: Профессиональный (Двухголосый закадровый) [Ozz]
Русские субтитры: нет
Режиссёр: Алекс Хардкэсл / Alex Hardcastle
В ролях: Джон Хэмм, Дэниэл Рэдклифф, Адам Годли, Крис Найт, Ребекка Гетингс
Описание: Экранизация цикла рассказов Михаила Булгакова "Записки юного врача".
| Сэмпл

Релиз:
Качество: HDTV 1080i
Формат: TS
Видео кодек: H.264
Аудио кодек: AC3
Видео: 1920x1080 at 25,000 fps, H.264, ~12700 kbps avg, ~ 0.24 bit/pixel
Аудио: 48 kHz, AC3, 3/2 (L,C,R,l,r) + LFE ch, ~384.00 kbps avg |Двухголосый закадровый, Ozz|
Аудио: 48 kHz, AC3, 3/2 (L,C,R,l,r) + LFE ch, ~384.00 kbps avg
D:\Filmi\A.Young.Doctors.Notebook.S01.1080i.HDTV\A.Young.Doctors.Notebook.S01E01.1080i.HDTV.Rus.Eng.HDCLUB.ts
General #1
ID : 1 (0x1)
Complete name : D:\Filmi\A.Young.Doctors.Notebook.S01.1080i.HDTV\A.Young.Doctors.Notebook.S01E01.1080i.HDTV.Rus.Eng.HDCLUB.ts
Format : MPEG-TS
File size : 2.25 GiB
Duration : 23mn 13s
Overall bit rate mode : Variable
Overall bit rate : 13.9 Mbps
Maximum Overall bit rate : 35.5 Mbps
Video #4113
ID : 4113 (0x1011)
Menu ID : 1 (0x1)
Format : AVC
Format/Info : Advanced Video Codec
Format profile : Main@L4.0
Format settings, CABAC : Yes
Format settings, ReFrames : 4 frames
Format settings, GOP : M=4, N=12
Codec ID : 27
Duration : 23mn 14s
Bit rate mode : Variable
Bit rate : 12.4 Mbps
Maximum bit rate : 40.0 Mbps
Width : 1 920 pixels
Height : 1 080 pixels
Display aspect ratio : 16:9
Frame rate : 25.000 fps
Color space : YUV
Chroma subsampling : 4:2:0
Bit depth : 8 bits
Scan type : Interlaced
Scan order : Top Field First
Bits/(Pixel*Frame) : 0.240
Stream size : 2.02 GiB (90%)
Color primaries : BT.709
Transfer characteristics : BT.709
Matrix coefficients : BT.709
Audio #4352
ID : 4352 (0x1100)
Menu ID : 1 (0x1)
Format : AC-3
Format/Info : Audio Coding 3
Mode extension : CM (complete main)
Format settings, Endianness : Big
Codec ID : 129
Duration : 23mn 13s
Bit rate mode : Constant
Bit rate : 384 Kbps
Channel(s) : 6 channels
Channel positions : Front: L C R, Side: L R, LFE
Sampling rate : 48.0 KHz
Bit depth : 16 bits
Compression mode : Lossy
Stream size : 63.8 MiB (3%)
Language : Russian
Audio #4353
ID : 4353 (0x1101)
Menu ID : 1 (0x1)
Format : AC-3
Format/Info : Audio Coding 3
Mode extension : CM (complete main)
Format settings, Endianness : Big
Codec ID : 129
Duration : 23mn 13s
Bit rate mode : Constant
Bit rate : 384 Kbps
Channel(s) : 6 channels
Channel positions : Front: L C R, Side: L R, LFE
Sampling rate : 48.0 KHz
Bit depth : 16 bits
Compression mode : Lossy
Stream size : 63.8 MiB (3%)
Language : English


Внимание! Раздача ведётся путём добавления новых серий; при каждом добавлении создётся новый торрент. Чтобы начать докачку новой серии, пользователям необходимо сделать следующее: (1) остановить скачивание, (2) удалить старый торрент у себя из клиента (старые серии удалять не надо), (3) скачать новый торрент и запустить его у себя в клиенте вместо старого, при этом указать клиенту путь в старую папку куда и должно происходить скачивание новых серий.
Ваш клиент при этом должен произвести хеширование (проверку) старой папки (если не производит сам - помогите ему сделать это), и будет докачивать только те серии которых у вас ещё нет. Старые серии при этом не удаляются, а продолжают раздаваться!
Eсли вы уже удалили старые серии, то предотвратить повторную закачку старых серий можно, отжав галочку в соответсвующих местах при запуске нового торрента.

Добавлена 4 серия 22.01.2013




Скачать Записки.юного.врача.A.Young.Doctor's.Notebook.(Сезон.1.серии.01-04.из.04).(Алекс.Хардкэсл.Alex.Hardcastle).[2012.Драма.комедия.экранизация.HDTV].[1080i].[DVO](Ozz).+.Original.torrent без регистрации
Золото ЗОЛОТАЯ РАЗДАЧА! СКАЧАННОЕ НЕ ЗАСЧИТЫВАЕТСЯ! Золото
Дата: Зарегистрирован   [ Тип: внутренний ] Как тут cкачать?
MAGNET ссылка
MAGNET ссылка


Скачать .torrent

40 KB

Статус: проверено DHT
Скачан: торрент - 148 раз, раздача полностью - 14 раз
Размер: 7,93 GB
Оценка:  5 (Голосов: 2)
Поблагодарили: 3
Поделиться ссылкой на эту раздачу с друзьями:
В контактеFacebookОдноклассникиTwitterLivejournalМой МирLiveinternet
 

 
Показать сообщения:    


Вы не можете начинать темы
Вы не можете отвечать на сообщения
Вы не можете редактировать свои сообщения
Вы не можете удалять свои сообщения
Вы не можете голосовать в опросах
Вы не можете прикреплять файлы к сообщениям
Вы можете скачивать файлы