Loading...
Error

/ L'incorrigible ( / Philippe de Broca) [1975, , , DVDRip-AVC] [MVO] () + [DVO] (Twister) + [Sub Rus] + [Original Fre]

 
1,59 GB   |    :  124
1  [  0 KB/s  ]  
 

leon030982

[] 

/ L'incorrigible

: 1975
:
:
: 01:34:58
1: ( ) []
2: ( ) [Twister]
C:
: /

: / Philippe de Broca

: - (Jean-Paul Belmondo), (Genevieve Bujold), (Julien Guiomar), (Charles Gerard), (Daniel Ceccaldi), (Capucine), (Andrea Ferreol)

: , , . , "" . , ... , , ...

6,5 :IMDB | : 7,7
: DVDRip-AVC|
: MKV
: x264, 672x576@990x576 (1.715), 25.000 fps, 1812 Kbps, 0.187 bit/pixel
1: AC3, 48.0 KHz, 192 Kbps, 2 channels (OPT)
2: AC3, 48.0 KHz, 192 Kbps, 2 channels (Twister)
3: AC3, 48.0 KHz, 192 Kbps, 2 channels () /
: softsub (SRT)

: 1,45 Gb

:

General
Unique ID : 181739904940354281088717826602318910357 (0x88B9D51ED103465886AC6F0D438B5395)
Complete name :L'incorrigible.1975.dvdrip-avc.mkv
Format : Matroska
Format version : Version 2
File size : 1.46 GiB
Duration : 1h 34mn
Overall bit rate : 2 200 Kbps
Movie name : / L'incorrigible // 1975 // dvdrip by egiko
Encoded by : egiko [source: DVD5]
Encoded date : UTC 2012-12-30 15:14:47
Writing application : mkvmerge v5.8.0 ('No Sleep / Pillow') built on Sep 2 2012 15:37:04
Writing library : libebml v1.2.3 + libmatroska v1.3.0
DATE : 1975
DIRECTOR : Philippe de Broca
Attachment : Yes
Video
ID : 1
Format : AVC
Format/Info : Advanced Video Codec
Format profile : High@L3.2
Format settings, CABAC : Yes
Format settings, ReFrames : 11 frames
Codec ID : V_MPEG4/ISO/AVC
Duration : 1h 34mn
Bit rate : 1 812 Kbps
Width : 672 pixels
Height : 576 pixels
Display aspect ratio : 1.715
Original display aspect ratio : 1.717
Frame rate mode : Constant
Frame rate : 25.000 fps
Color space : YUV
Chroma subsampling : 4:2:0
Bit depth : 8 bits
Scan type : Progressive
Bits/(Pixel*Frame) : 0.187
Stream size : 1.18 GiB (81%)
Title : / L'incorrigible
Writing library : x264 core 128 r2216kMod 198a7ea
Encoding settings : cabac=1 / ref=11 / deblock=1:-1:-1 / analyse=0x3:0x133 / me=umh / subme=10 / psy=1 / fade_compensate=0.00 / psy_rd=1.00:0.15 / mixed_ref=1 / me_range=24 / chroma_me=1 / trellis=2 / 8x8dct=1 / cqm=0 / deadzone=21,11 / fast_pskip=1 / chroma_qp_offset=-3 / threads=6 / lookahead_threads=1 / sliced_threads=0 / nr=0 / decimate=1 / interlaced=0 / bluray_compat=0 / constrained_intra=0 / bframes=10 / b_pyramid=2 / b_adapt=2 / b_bias=0 / direct=3 / weightb=1 / open_gop=0 / weightp=2 / keyint=250 / keyint_min=25 / scenecut=40 / intra_refresh=0 / rc=2pass / mbtree=0 / bitrate=1812 / ratetol=1.0 / qcomp=0.60 / qpmin=0 / qpmax=69 / qpstep=4 / cplxblur=20.0 / qblur=0.5 / ip_ratio=1.40 / pb_ratio=1.30 / aq=1:1.00
Language : French
Default : Yes
Forced : No
Audio #1
ID : 2
Format : AC-3
Format/Info : Audio Coding 3
Mode extension : CM (complete main)
Format settings, Endianness : Big
Codec ID : A_AC3
Duration : 1h 34mn
Bit rate mode : Constant
Bit rate : 192 Kbps
Channel(s) : 2 channels
Channel positions : Front: L R
Sampling rate : 48.0 KHz
Bit depth : 16 bits
Compression mode : Lossy
Stream size : 130 MiB (9%)
Title : OPT
Language : Russian
Default : Yes
Forced : No
Audio #2
ID : 3
Format : AC-3
Format/Info : Audio Coding 3
Mode extension : CM (complete main)
Format settings, Endianness : Big
Codec ID : A_AC3
Duration : 1h 34mn
Bit rate mode : Constant
Bit rate : 192 Kbps
Channel(s) : 2 channels
Channel positions : Front: L R
Sampling rate : 48.0 KHz
Bit depth : 16 bits
Compression mode : Lossy
Stream size : 130 MiB (9%)
Title : Twister
Language : Russian
Default : No
Forced : No
Text
ID : 4
Format : UTF-8
Codec ID : S_TEXT/UTF8
Codec ID/Info : UTF-8 Plain Text
Language : Russian
Default : No
Forced : No



! , , . -

, , . , , .

. , . - . , , , , ..?

, 帅 .

10 10 . . -





.L'incorrigible.(...Philippe.de.Broca).[1975...DVDRip-AVC].[MVO].().+.[DVO].(Twister).+.[Sub.Rus].+.[Original.Fre].torrent
  ! ! 
:   [ : ] c?
MAGNET
MAGNET


.torrent

3 KB

: DHT
: - 124 , - 22
: 1,59 GB
5 (: 2)
: 1
:
 FacebookTwitterLivejournal Liveinternet
 

 
: