Loading...
Error

Скачать Большие гонки / The Great Race (Блэйк Эдвардс) [1965, мелодрама, комедия, HDTVRip] [Dub] торрент без регистрации

 
Статистика раздачи
Размер:  1,46 GB   |    Скачан:  150 раз
Сидов:  1  [  0 KB/s  ]  
 
Автор Сообщение

МихаНЕзатор

[] 

Страна: США
Год выпуска: 1965
Студия: Jalem Productions, Patricia, Reynard, Warner Bros. Pictures

Жанр: мелодрама, комедия
Продолжительность: 02:26:16

Перевод: Профессиональный (дублированный)
Оригинальная аудиодорожка: нет
Cубтитры: нет

Режиссер: Блэйк Эдвардс / Blake Edwards

В ролях: Джек Леммон, Тони Кертис, Натали Вуд, Питер Фальк, Кинэн Уинн, Артур О'Коннелл, Вивиан Вэнс, Дороти Провайн, Ларри Сторч, Росс Мартин, Марвин Каплан, Хэл Смит...

Роли дублировали: Сергей Юрский, Александр Демьяненко, Галина Чигинская, Борис Аракелов, Игорь Ефимов...

Описание:
Начало ХХ века. Знаменитый испытатель, рыцарь без страха и упрека, всегда с иголочки одетый во все белое, Лесли по прозвищу Великий организует беспрецедентный автопробег Нью-Йорк-Париж. Завистливый и злобный изобретатель профессор Фэйт со своим верным слугой Максом принимает вызов Лесли. Он готов на все, лишь бы тот не добрался до финиша живым. Но какое приключение без женщины. И она появляется красотка Мэгги обещает редактору ежедневной газеты сделать сенсационный репортаж с места событий и отправляется навстречу опасностям за рулем своей колымаги. Гонка стартовала, герой, красавица и злодей отправляются в путь

Исходник: HDTV 720p
Тип релиза: HDTVRip
Контейнер: AVI

Видео: 720х304 (2,40:1), 25 fps, XviD ~ 1224 kbps avg, 0.224 bit/pixel
Аудио: 48 kHz, AC3, 2 ch, 192.00 kbps дубляж


Общее
Полное имя : Bol'shie.gonki.1965.D.HDTVRip_[Youtracker]_by_AVP Studio.avi
Формат : AVI
Формат/Информация : Audio Video Interleave
Размер файла : 1,46 Гбайт
Продолжительность : 2 ч. 26 м.
Общий поток : 1425 Кбит/сек
Программа кодирования : VirtualDubMod 1.5.10.3 | www.virtualdub-fr.org || (build 2550/release)
Библиотека кодирования : VirtualDubMod build 2550/release

Видео
Идентификатор : 0
Формат : MPEG-4 Visual
Профиль формата : Advanced Simple@L5
Параметр BVOP формата : 1
Параметр QPel формата : Нет
Параметр GMC формата : Без точки перехода
Параметр матрицы формата : Выборочная
Идентификатор кодека : XVID
Идентификатор кодека/Подсказка : XviD
Продолжительность : 2 ч. 26 м.
Битрейт : 1224 Кбит/сек
Ширина : 720 пикселей
Высота : 304 пикселя
Соотношение сторон : 2,40:1
Частота кадров : 25,000 кадров/сек
Цветовое пространство : YUV
Субдискретизация насыщенности : 4:2:0
Битовая глубина : 8 бит
Тип развёртки : Прогрессивная
Метод сжатия : С потерями
Бит/(Пиксели*Кадры) : 0.224
Размер потока : 1,25 Гбайт (86%)
Библиотека кодирования : XviD 65

Аудио
Идентификатор : 1
Формат : AC-3
Формат/Информация : Audio Coding 3
Расширение режима : CM (complete main)
Идентификатор кодека : 2000
Продолжительность : 2 ч. 26 м.
Вид битрейта : Постоянный
Битрейт : 192 Кбит/сек
Каналы : 2 канала
Расположение каналов : Front: L R
Частота : 48,0 КГц
Битовая глубина : 16 бит
Метод сжатия : С потерями
Размер потока : 201 Мбайт (13%)
Выравнивание : Разделение по промежуткам
Продолжительность промежутка : 40 мс. (1,00 видеокадр)
Время предзагрузки промежутка : 500 мс



Скачать Большие.гонки.The.Great.Race.(Блэйк.Эдвардс).[1965.мелодрама.комедия.HDTVRip].[Dub].torrent без регистрации
Золото ЗОЛОТАЯ РАЗДАЧА! СКАЧАННОЕ НЕ ЗАСЧИТЫВАЕТСЯ! Золото
Дата: Зарегистрирован   [ Тип: внутренний ] Как тут cкачать?
MAGNET ссылка
MAGNET ссылка


Скачать .torrent

15 KB

Статус: проверено DHT
Скачан: торрент - 150 раз, раздача полностью - 581 раз
Размер: 1,46 GB
Оценка:  - (Голосов: 0)
Поблагодарили: 3
Поделиться ссылкой на эту раздачу с друзьями:
В контактеFacebookОдноклассникиTwitterLivejournalМой МирLiveinternet
 

 
Показать сообщения:    


Вы не можете начинать темы
Вы не можете отвечать на сообщения
Вы не можете редактировать свои сообщения
Вы не можете удалять свои сообщения
Вы не можете голосовать в опросах
Вы не можете прикреплять файлы к сообщениям
Вы можете скачивать файлы