Loading...
Error

Скачать Записки юного врача / A Young Doctor's Notebook (сезон 01) (Алекс Хардкэсл) [2012, драма, экранизация, HDTVRip] [720p] [MVO (LostFilm)] торрент без регистрации

 
Статистика раздачи
Размер:  3,08 GB   |    Скачан:  154 раза
Сидов:  1  [  0 KB/s  ]  
 
Автор Сообщение

МихаНЕзатор

[] 

Информация о фильме
Название: Записки юного врача
Оригинальное название: A Young Doctor's Notebook
Год выхода: 2012
Жанр: драма, экранизация
Режиссер: Алекс Хардкэсл
В ролях: Джон Хэмм, Дэниэл Рэдклифф, Адам Годли, Крис Найт, Ребекка Гетингс


О фильме:
Сериал "Записки юного врача" повествует историю действительности и жизни обычного провинциального врача во времена революции 1917 года в России. Сюжетная линия сериала основа на рассказах известного писателя Михаила Булгакова. В неспокойное революционное время юный врач Бомгард Владимир (в его роли Дэниэл Рэдклифф) прибыл в маленькую деревушку, где принялся лечить местных жителей. Главному герою сериала приходится весьма нелегко, ведь он вынужден сталкиваться с трудностями своей профессии, а также постоянными суевериями своих пациентов.





Страна: Великобритания
Продолжительность: ~ 00:25:00
Перевод: Профессиональный (многоголосый, закадровый) LostFilm
Cубтитры: Нет


Файл
Качество: HDTVRip 720p
Формат: MKV
Кодек: MPEG-4
Видео: AVC, ~ 4041 Kbps, 1280x720
Аудио Rus: АС3, 2 ch, 384 Kbps
Аудио Eng: АС3, 2 ch, 384 Kbps

Релиз от:

03.01.2013 г. торент обновлён, добавлена 2-4 серия! Сезон полностью
General
Unique ID : 233250132331353287468691028021877283610 (0xAF7A57688A9393D4A12E941DAF061B1A)
Complete name : F:A.Young.Doctors.NotebookA.Young.Doctors.Notebook.S01E01.720p.rus.LostFilm.TV.mkv
Format : Matroska
File size : 801 MiB
Duration : 23mn 16s
Overall bit rate : 4 811 Kbps
Encoded date : UTC 2012-12-31 11:49:17
Writing application : mkvmerge v4.2.0 ('No Talking') сборка от Jul 28 2010 18:38:23
Writing library : libebml v1.0.0 + libmatroska v1.0.0

Video
ID : 1
Format : AVC
Format/Info : Advanced Video Codec
Format profile : High@L3.1
Format settings, CABAC : Yes
Format settings, ReFrames : 4 frames
Format settings, GOP : M=3, N=6
Codec ID : V_MPEG4/ISO/AVC
Duration : 23mn 16s
Bit rate : 4 041 Kbps
Width : 1 280 pixels
Height : 720 pixels
Display aspect ratio : 16:9
Frame rate : 23.976 fps
Color space : YUV
Chroma subsampling : 4:2:0
Bit depth : 8 bits
Scan type : Progressive
Bits/(Pixel*Frame) : 0.183
Stream size : 657 MiB (82%)
Writing library : x264 core 112 r1834 a51816a
Encoding settings : cabac=1 / ref=1 / deblock=1:0:0 / analyse=0x3:0x113 / me=hex / subme=7 / psy=1 / psy_rd=1.00:0.00 / mixed_ref=0 / me_range=16 / chroma_me=1 / trellis=1 / 8x8dct=1 / cqm=0 / deadzone=21,11 / fast_pskip=1 / chroma_qp_offset=-2 / threads=6 / sliced_threads=0 / nr=0 / decimate=1 / interlaced=0 / constrained_intra=0 / bframes=3 / b_pyramid=2 / b_adapt=1 / b_bias=0 / direct=1 / weightb=1 / open_gop=0 / weightp=2 / keyint=250 / keyint_min=25 / scenecut=40 / intra_refresh=0 / rc_lookahead=40 / rc=2pass / mbtree=1 / bitrate=4041 / ratetol=1.0 / qcomp=0.60 / qpmin=0 / qpmax=51 / qpstep=4 / cplxblur=20.0 / qblur=0.5 / ip_ratio=1.40 / aq=1:1.00

Audio #1
ID : 2
Format : AC-3
Format/Info : Audio Coding 3
Mode extension : CM (complete main)
Codec ID : A_AC3
Duration : 23mn 16s
Bit rate mode : Constant
Bit rate : 384 Kbps
Channel(s) : 2 channels
Channel positions : Front: L R
Sampling rate : 48.0 KHz
Bit depth : 16 bits
Compression mode : Lossy
Stream size : 63.9 MiB (8%)

Audio #2
ID : 3
Format : AC-3
Format/Info : Audio Coding 3
Mode extension : CM (complete main)
Codec ID : A_AC3
Duration : 23mn 16s
Bit rate mode : Constant
Bit rate : 384 Kbps
Channel(s) : 2 channels
Channel positions : Front: L R
Sampling rate : 48.0 KHz
Bit depth : 16 bits
Compression mode : Lossy
Stream size : 63.9 MiB (8%)



Скачать Записки.юного.врача.A.Young.Doctor's.Notebook.(сезон.01).(Алекс.Хардкэсл).[2012.драма.экранизация.HDTVRip].[720p].[MVO.(LostFilm)].torrent без регистрации
Золото ЗОЛОТАЯ РАЗДАЧА! СКАЧАННОЕ НЕ ЗАСЧИТЫВАЕТСЯ! Золото
Дата: Зарегистрирован   [ Тип: внутренний ] Как тут cкачать?
MAGNET ссылка
MAGNET ссылка


Скачать .torrent

16 KB

Статус: проверено DHT
Скачан: торрент - 154 раз, раздача полностью - 83 раз
Размер: 3,08 GB
Оценка:  4,5 (Голосов: 2)
Поблагодарили: 4
Поделиться ссылкой на эту раздачу с друзьями:
В контактеFacebookОдноклассникиTwitterLivejournalМой МирLiveinternet
 

 
Показать сообщения:    


Вы не можете начинать темы
Вы не можете отвечать на сообщения
Вы не можете редактировать свои сообщения
Вы не можете удалять свои сообщения
Вы не можете голосовать в опросах
Вы не можете прикреплять файлы к сообщениям
Вы можете скачивать файлы