Loading...
Error

Скачать Перевозчик / Transporter: The Series (сезон 01) (Брэд Тернер, Энди Микита, Т.Дж. Скотт) [2012, боевик, экшн, драма, криминал, HDTV] [720p] [MVO (Baibako)] торрент без регистрации

 
Статистика раздачи
Размер:  17,74 GB   |    Скачан:  239 раз
Сидов:  1  [  0 KB/s  ]  
 
Автор Сообщение

МихаНЕзатор

[] 

Название: Перевозчик
Оригинальное название: Transporter: The Series
Год выпуска: 2012
Страна: Канада, Франция, США, Германия
Жанр: боевик, экшн, драма, криминал
Продолжительность: 01 х ~ 00:45:00
Перевод: Профессиональный (многоголосый, закадровый) - Baibako
Субтитры: Нет
Режиссер: Брэд Тернер, Энди Микита, Т.Дж. Скотт
Сценарий: Люк Бессон, Роберт Марк Кэмен, Джозеф Маллози

В ролях: Крис Вэнс,Андреа Ошварт, Дэльфина Шанеак, Чарли Хюбнер, Франсуа Берлеан, Жан-Поль Мано, Джулиан Ричингс, Джейк Майклс, Джош Блэкер, Ной Кэппи

Описание: Перевозчик экшн-телесериал по мотивам одноимённой серии фильмов Люка Бессона. В центре сюжета бывший сотрудник Сил специального назначения Фрэнк Мартин, ныне перевозчик разных грузов. Он не задает лишних вопросов и всегда соблюдает чёткие правила: "Никогда не изменяй условия сделки", "Никаких имён", "Никогда не открывать груз". Его точность вождения и боевые навыки позволяют ему выжить в самых опасных ситуациях на протяжении всей миссии.

Перевод: Дарья Омельяненко
Озвучка: Руслан Иванов, Елена Григорьева, Татьяна Оболевич и Владимир Курдов.
Монтаж: Игорь Лихо
Обложка: Татьяна Saavick

Качество: HDTV 720p
Формат: MKV
Видео кодек: AVC
Аудио кодек: AC3
Видео: MPEG-4 AVC, ~ 3820 Кбит/с, 1280x720
Аудио rus: AC3, 6 ch, 384 Кбит/с
Аудио ger: AC3, 6 ch, 384 Кбит/с

Релиз от:

09.03.2013 г. торент обновлён, добавлена 12 серия!

01 Дочь генерала / The General's Daughter
02 Отцовская любовь
03 Switch (Echt Falsch) / Подмена
04. Запасной план / Harvest
05. Расплата
06. Троянская лошадиная сила
07. Акулы
08. Алмазы в крови (Горячий лёд)
09. Город любви / City of Love
10. Шерше ля фам / Cherchez La Femme
11. Двенадцать часов
12. Подай руку помощи / Give the Guy a Hand
Формат : Matroska
Размер файла : 1,21 Гбайт
Продолжительность : 44 м.
Общий поток : 3891 Кбит/сек
Название фильма : Transporter.Die.Serie.S01E02.Vaterliebe.GERMAN.720p.HDTV.x264-TVP
Дата кодирования : UTC 2012-12-31 20:08:32
Программа кодирования : mkvmerge v5.8.0 ('No Sleep / Pillow') built on Sep 2 2012 15:37:04
Библиотека кодирования : libebml v1.2.3 + libmatroska v1.3.0

Видео
Идентификатор : 1
Формат : AVC
Формат/Информация : Advanced Video Codec
Профиль формата : High@L4.1
Параметр CABAC формата : Да
Параметр ReFrames формата : 8 кадров
Идентификатор кодека : V_MPEG4/ISO/AVC
Продолжительность : 44 м.
Битрейт : 3046 Кбит/сек
Ширина : 1280 пикс.
Высота : 720 пикс.
Соотношение сторон : 16:9
Частота кадров : 25,000 кадр/сек
Цветовое пространство : YUV
Подвыборка цветности : 4:2:0
Битовая глубина : 8 бит
Тип развёртки : Прогрессивная
Бит/(Пиксели*Кадры) : 0.132
Размер потока : 973 Мбайт (78%)
Заголовок : tvp-transporter-s01e02-720p
Библиотека кодирования : x264 core 128 r2216 198a7ea
Настройки программы : cabac=1 / ref=8 / deblock=1:-3:-3 / analyse=0x3:0x133 / me=umh / subme=9 / psy=1 / psy_rd=1.00:0.15 / mixed_ref=1 / me_range=16 / chroma_me=1 / trellis=2 / 8x8dct=1 / cqm=0 / deadzone=21,11 / fast_pskip=0 / chroma_qp_offset=-3 / threads=24 / lookahead_threads=4 / sliced_threads=0 / nr=0 / decimate=1 / interlaced=0 / bluray_compat=0 / constrained_intra=0 / bframes=3 / b_pyramid=2 / b_adapt=2 / b_bias=0 / direct=3 / weightb=1 / open_gop=0 / weightp=2 / keyint=250 / keyint_min=25 / scenecut=40 / intra_refresh=0 / rc_lookahead=60 / rc=crf / mbtree=1 / crf=19.0 / qcomp=0.60 / qpmin=0 / qpmax=69 / qpstep=4 / ip_ratio=1.40 / aq=1:1.00
Язык : German
Основные цвета : BT.709-5, BT.1361, IEC 61966-2-4, SMPTE RP177
Характеристики трансфера : BT.709-5, BT.1361
Коэффициенты матрицы : BT.709-5, BT.1361, IEC 61966-2-4 709, SMPTE RP177

Аудио #1
Идентификатор : 2
Формат : AC-3
Формат/Информация : Audio Coding 3
Расширение режима : CM (complete main)
Идентификатор кодека : A_AC3
Продолжительность : 44 м.
Вид битрейта : Постоянный
Битрейт : 384 Кбит/сек
Каналы : 6 каналов
Расположение каналов : Front: L C R, Side: L R, LFE
Частота : 48,0 КГц
Битовая глубина : 16 бит
Метод сжатия : С потерями
Размер потока : 123 Мбайт (10%)
Заголовок : Rus BaibaKo.tv DD5.1
Язык : Russian

Аудио #2
Идентификатор : 3
Формат : AC-3
Формат/Информация : Audio Coding 3
Расширение режима : CM (complete main)
Идентификатор кодека : A_AC3
Продолжительность : 44 м.
Вид битрейта : Постоянный
Битрейт : 384 Кбит/сек
Каналы : 6 каналов
Расположение каналов : Front: L C R, Side: L R, LFE
Частота : 48,0 КГц
Битовая глубина : 16 бит
Метод сжатия : С потерями
Размер потока : 123 Мбайт (10%)
Заголовок : Ger DD 5.1
Язык : German



Скачать Перевозчик.Transporter.The.Series.(сезон.01).(Брэд.Тернер.Энди.Микита.Т.Дж.Скотт).[2012.боевик.экшн.драма.криминал.HDTV].[720p].[MVO.(Baibako)].torrent без регистрации
Золото ЗОЛОТАЯ РАЗДАЧА! СКАЧАННОЕ НЕ ЗАСЧИТЫВАЕТСЯ! Золото
Дата: Зарегистрирован   [ Тип: внутренний ] Как тут cкачать?
MAGNET ссылка
MAGNET ссылка


Скачать .torrent

90 KB

Статус: проверено DHT
Скачан: торрент - 239 раз, раздача полностью - 2 раз
Размер: 17,74 GB
Оценка:  4,5 (Голосов: 2)
Поблагодарили: 6
Поделиться ссылкой на эту раздачу с друзьями:
В контактеFacebookОдноклассникиTwitterLivejournalМой МирLiveinternet
 

 
Показать сообщения:    


Вы не можете начинать темы
Вы не можете отвечать на сообщения
Вы не можете редактировать свои сообщения
Вы не можете удалять свои сообщения
Вы не можете голосовать в опросах
Вы не можете прикреплять файлы к сообщениям
Вы можете скачивать файлы