Loading...
Error

Скачать Записки юного врача / A Young Doctor's Notebook (сезон 01) (Алекс Хардкэсл) [2012, драма, экранизация, HDTVRip] [MVO (LostFilm)] торрент без регистрации

 
Статистика раздачи
Размер:  929 MB   |    Скачан:  151 раз
Сидов:  1  [  0 KB/s  ]  
 
Автор Сообщение

МихаНЕзатор

[] 

Название: Записки юного врача
Оригинальное название: A Young Doctor's Notebook
Год выпуска: 2012
Страна: Великобритания
Жанр: Драма, комедия
Продолжительность: 01 х ~ 00:25:00
Перевод: Профессиональный (многоголосый закадровый) - LostFilm
Субтитры: нет
Режиссер: Алекс Хардкэсл

В ролях: Дэниэл Рэдклифф, Адам Годли, Джон Хэмм, Рози Кавальеро, Вики Пеппердин

Описание: Экранизация цикла рассказов Михаила Булгакова "Записки юного врача".
В неспокойное революционное время юный врач Бомгард Владимир прибыл в маленькую деревушку, где принялся лечить местных жителей. Главному герою сериала приходится весьма нелегко, ведь он вынужден сталкиваться с трудностями своей профессии, а также постоянными суевериями своих пациентов.



Качество: HDTVRip
Формат: AVI
Видео кодек: XviD
Аудио кодек: МР3
Видео: XviD, ~ 1145 Кбит/с, 720x400
Аудио rus: МР3, 2 ch, 192 Кбит/

Релиз от:

Торент обновлён, добавлена 3-4 серия!
Формат : AVI
Формат/Информация : Audio Video Interleave
Размер файла : 224 Мбайт
Продолжительность : 23 м.
Общий поток : 1345 Кбит/сек
Программа кодирования : Nandub v1.0rc2
Библиотека кодирования : Nandub build 1853/release

Видео
Идентификатор : 0
Формат : MPEG-4 Visual
Профиль формата : Simple@L3
Параметр BVOP формата : Нет
Параметр QPel формата : Нет
Параметр GMC формата : Без точки перехода
Параметр матрицы формата : Default (H.263)
Идентификатор кодека : XVID
Идентификатор кодека/Подсказка : XviD
Продолжительность : 23 м.
Битрейт : 1145 Кбит/сек
Ширина : 720 пикс.
Высота : 400 пикс.
Соотношение сторон : 16:9
Частота кадров : 23,976 кадр/сек
Цветовое пространство : YUV
Подвыборка цветности : 4:2:0
Битовая глубина : 8 бит
Тип развёртки : Прогрессивная
Метод сжатия : С потерями
Бит/(Пиксели*Кадры) : 0.166
Размер потока : 190 Мбайт (85%)
Библиотека кодирования : XviD 1.2.1 (UTC 2008-12-04)

Аудио
Идентификатор : 1
Формат : MPEG Audio
Версия формата : Version 1
Профиль формата : Layer 3
Режим : Joint stereo
Расширение режима : MS Stereo
Идентификатор кодека : 55
Идентификатор кодека/Подсказка : MP3
Продолжительность : 23 м.
Вид битрейта : Переменный
Битрейт : 192 Кбит/сек
Каналы : 2 канала
Частота : 48,0 КГц
Метод сжатия : С потерями
Размер потока : 31,3 Мбайт (14%)
Выравнивание : Соединение по промежуткам
Продолжительность промежутка : 24 мс. (0,58 видеокадр)
Время предзагрузки промежутка : 483 ms
Библиотека кодирования : LAME3.97b
Настройки программы : -m j -V 4 -q 3 -lowpass 18.6 --abr 192



Скачать Записки.юного.врача.A.Young.Doctor's.Notebook.(сезон.01).(Алекс.Хардкэсл).[2012.драма.экранизация.HDTVRip].[MVO.(LostFilm)].torrent без регистрации
Золото ЗОЛОТАЯ РАЗДАЧА! СКАЧАННОЕ НЕ ЗАСЧИТЫВАЕТСЯ! Золото
Дата: Зарегистрирован   [ Тип: внутренний ] Как тут cкачать?
MAGNET ссылка
MAGNET ссылка


Скачать .torrent

19 KB

Статус: проверено DHT
Скачан: торрент - 151 раз, раздача полностью - 23 раз
Размер: 929 MB
Оценка:  - (Голосов: 0)
Поблагодарили: 0
Поделиться ссылкой на эту раздачу с друзьями:
В контактеFacebookОдноклассникиTwitterLivejournalМой МирLiveinternet
 

 
Показать сообщения:    


Вы не можете начинать темы
Вы не можете отвечать на сообщения
Вы не можете редактировать свои сообщения
Вы не можете удалять свои сообщения
Вы не можете голосовать в опросах
Вы не можете прикреплять файлы к сообщениям
Вы можете скачивать файлы