Loading...
Error

Скачать В тупике / Road Ends (Рик Кинг / Rick King) [1997, триллер, DVDRip] [AVO] (Ю. Сербин) торрент без регистрации

 
Статистика раздачи
Размер:  1,47 GB   |    Скачан:  106 раз
Сидов:  1  [  0 KB/s  ]  
 
Автор Сообщение

leon030982

[] 

В тупике / Road Ends

Год выпуска: 1997
Страна: США
Жанр: триллер
Продолжительность: 01:34:14
Перевод: Авторский (одноголосый закадровый) [Ю. Сербин]
Cубтитры: нет

Режиссер: Рик Кинг / Rick King

В ролях: Деннис Хоппер, Питер Койот, Крис Сарандон, Джоанна Глисон, Мэриэл Хемингуэй, Джеффри Торн,
Берт Ремсен, Пэтришиа Ван Инген, Мигель Найера, Роберт Коваррубиас, Брэд Блэйсделл,
Стив Ларсон, Марти Бойл Слоут, Кристофер Бойер, Джон Джебели

Описание: Когда в тихом городке появляется незнакомец с крутой внешностью и темным прошлым, у шерифа есть все основания желать его скорейшего отбытия. Особенно если он чем-то насолил крупной банде и она идет по его следу. Но когда нежелательную персону вовремя выдворить из города не удалось, полицейскому и мафиози приходится сражаться с общими врагами плечом к плечу.

Качество видео: DVDRip
Формат видео: AVI
Видео: 640x480 (4:3), 25.000 fps, XviD ~2 104 Kbps avg, 0.27 bit/pixel
Аудио: 48 kHz, AC3 Dolby Digital, 2/0 (L,R), ~192.00 kbps avg
Звуковая дорожка оцифрована с кассеты
Большое спасибо Fikaloid
General
Complete name : E:\Road Ends.avi
Format : AVI
Format/Info : Audio Video Interleave
File size : 1.47 GiB
Duration : 1h 34mn
Overall bit rate : 2 306 Kbps
Writing application : VirtualDubMod 1.5.10.2 (build 2540/release)
Writing library : VirtualDubMod build 2540/release
Video
ID : 0
Format : MPEG-4 Visual
Format profile : Advanced Simple@L5
Format settings, BVOP : 2
Format settings, QPel : No
Format settings, GMC : No warppoints
Format settings, Matrix : Default (MPEG)
Codec ID : XVID
Codec ID/Hint : XviD
Duration : 1h 34mn
Bit rate : 2 104 Kbps
Width : 640 pixels
Height : 480 pixels
Display aspect ratio : 4:3
Frame rate : 25.000 fps
Color space : YUV
Chroma subsampling : 4:2:0
Bit depth : 8 bits
Scan type : Progressive
Compression mode : Lossy
Bits/(Pixel*Frame) : 0.274
Stream size : 1.34 GiB (91%)
Writing library : XviD 1.2.1 (UTC 2008-12-04)
Audio
ID : 1
Format : AC-3
Format/Info : Audio Coding 3
Format profile : Dolby Digital
Mode extension : CM (complete main)
Format settings, Endianness : Big
Codec ID : 2000
Duration : 1h 34mn
Bit rate mode : Constant
Bit rate : 192 Kbps
Channel(s) : 2 channels
Channel positions : Front: L R
Sampling rate : 48.0 KHz
Bit depth : 16 bits
Compression mode : Lossy
Stream size : 129 MiB (9%)
Alignment : Split accross interleaves
Interleave, duration : 40 ms (1.00 video frame)
Interleave, preload duration : 500 ms



Скачать В.тупике.Road.Ends.(Рик.Кинг.Rick.King).[1997.триллер.DVDRip].[AVO].(Ю.Сербин).torrent без регистрации
Золото ЗОЛОТАЯ РАЗДАЧА! СКАЧАННОЕ НЕ ЗАСЧИТЫВАЕТСЯ! Золото
Дата: Зарегистрирован   [ Тип: внутренний ] Как тут cкачать?
MAGNET ссылка
MAGNET ссылка


Скачать .torrent

15 KB

Статус: проверено DHT
Скачан: торрент - 106 раз, раздача полностью - 5 раз
Размер: 1,47 GB
Оценка:  - (Голосов: 0)
Поблагодарили: 3
Поделиться ссылкой на эту раздачу с друзьями:
В контактеFacebookОдноклассникиTwitterLivejournalМой МирLiveinternet
 

 
Показать сообщения:    


Вы не можете начинать темы
Вы не можете отвечать на сообщения
Вы не можете редактировать свои сообщения
Вы не можете удалять свои сообщения
Вы не можете голосовать в опросах
Вы не можете прикреплять файлы к сообщениям
Вы можете скачивать файлы