Loading...
Error

Скачать Обитель зла 3 / Resident Evil: Extinction (Расселл Малкеи / Russell Mulcahy) [2007, ужасы, фантастика, боевик, триллер, HDRip] [AVO] (Ю. Живов) торрент без регистрации

 
Статистика раздачи
Размер:  745 MB   |    Скачан:  171 раз
Сидов:  1  [  0 KB/s  ]  
 
Автор Сообщение

leon030982

[] 

Обитель зла 3 / Resident Evil: Extinction

Год выпуска: 2007
Страна: США, Германия, Франция
Жанр: ужасы, фантастика, боевик, триллер
Продолжительность: 01:34:05
Перевод: Авторский (одноголосый закадровый) (Ю. Живов)
Cубтитры: нет

Режиссер: Расселл Малкеи / Russell Mulcahy

В ролях: Милла Йовович, Одед Фер, Али Лартер, Айэйн Глен, Ашанти, Кристофер Иган, Спенсер Лок, Мэттью Мэрсден, Линден Эшби, Джейсон О'Мара, Майк Еппс, Joe Hursley, Джон Эрик Бентли, Джеймс Тумминиа, Кирк Б.Р. Уоллер, Рик Крамер, Мадлен Кэрролл, Питер О'Мира, Уильям Абади, Рамон Франко, Шэйн Вудсон

Описание: Элис, не раз уже спасавшая мир от смертельных вирусов и неминуемой гибели, вновь взялась за оружие. На этот раз ей предстоит сразиться с корпорацией «Амбрелла», работающей над реализацией зверского антигуманного проекта. Коварные политики и прагматичные ученые стремятся уничтожить людей и заменить их на более «совершенные» создания, заселив Землю неуязвимыми бессмертными клонами…

Автор рипа: avatar-aang
Сэмпл: http://sendfile.su/314474
Качество видео: HDRip [i]
Формат видео
: AVI
Видео: 688x288 (2.39:1), 23.976 fps, XviD build 50 ~969 kbps avg, 0.20 bit/pixel
Аудио: 48 kHz, MPEG Layer 3, 2 ch, ~128.00 kbps avg
General
Complete name : C:\zlo3-745.avi
Format : AVI
Format/Info : Audio Video Interleave
File size : 745 MiB
Duration : 1h 34mn
Overall bit rate : 1 107 Kbps
Writing application : VirtualDubMod 1.5.10.2 (build 2540/release)
Writing library : VirtualDubMod build 2540/release
Video
ID : 0
Format : MPEG-4 Visual
Format profile : Advanced Simple@L5
Format settings, BVOP : 1
Format settings, QPel : No
Format settings, GMC : No warppoints
Format settings, Matrix : Custom
Codec ID : XVID
Codec ID/Hint : XviD
Duration : 1h 34mn
Bit rate : 970 Kbps
Width : 688 pixels
Height : 288 pixels
Display aspect ratio : 2.35:1
Frame rate : 23.976 fps
Color space : YUV
Chroma subsampling : 4:2:0
Bit depth : 8 bits
Scan type : Progressive
Compression mode : Lossy
Bits/(Pixel*Frame) : 0.204
Stream size : 653 MiB (88%)
Writing library : XviD 1.2.1 (UTC 2008-12-04)
Audio
ID : 1
Format : MPEG Audio
Format version : Version 1
Format profile : Layer 3
Codec ID : 55
Codec ID/Hint : MP3
Duration : 1h 34mn
Bit rate mode : Constant
Bit rate : 128 Kbps
Channel(s) : 2 channels
Sampling rate : 48.0 KHz
Compression mode : Lossy
Stream size : 86.1 MiB (12%)
Alignment : Aligned on interleaves
Interleave, duration : 42 ms (1.00 video frame)
Interleave, preload duration : 504 ms
Writing library : LAME3.98r
Encoding settings : -m s -V 4 -q 2 -lowpass 17 -b 128



Скачать Обитель.зла.3.Resident.Evil.Extinction.(Расселл.Малкеи.Russell.Mulcahy).[2007.ужасы.фантастика.боевик.триллер.HDRip].[AVO].(Ю.Живов).torrent без регистрации
Золото ЗОЛОТАЯ РАЗДАЧА! СКАЧАННОЕ НЕ ЗАСЧИТЫВАЕТСЯ! Золото
Дата: Зарегистрирован   [ Тип: внутренний ] Как тут cкачать?
MAGNET ссылка
MAGNET ссылка


Скачать .torrent

15 KB

Статус: проверено DHT
Скачан: торрент - 171 раз, раздача полностью - 235 раз
Размер: 745 MB
Оценка:  - (Голосов: 0)
Поблагодарили: 2
Поделиться ссылкой на эту раздачу с друзьями:
В контактеFacebookОдноклассникиTwitterLivejournalМой МирLiveinternet
 

 
Показать сообщения:    


Вы не можете начинать темы
Вы не можете отвечать на сообщения
Вы не можете редактировать свои сообщения
Вы не можете удалять свои сообщения
Вы не можете голосовать в опросах
Вы не можете прикреплять файлы к сообщениям
Вы можете скачивать файлы