Loading...
Error

Скачать Вожди Атлантиды / Warlords of Atlantis (Кевин Коннор) [1978, фантастика, фэнтези, приключения, DVDRip] [Dub] + [AVO] (Живов) торрент без регистрации

 
Статистика раздачи
Размер:  830 MB   |    Скачан:  137 раз
Сидов:  1  [  0 KB/s  ]  
 
Автор Сообщение

leon030982

[] 

Вожди Атлантиды / Warlords of Atlantis


Год выпуска: 1978
Страна: Великобритания
Жанр: фантастика, фэнтези, приключения
Продолжительность: 01:32:23
Перевод 1: Профессиональный (дублированный) Советский дубляж + вставки с переводом Юрия Живова (т.к. в нашем прокате шла укороченная версия фильма)
Перевод 2: Авторский (одноголосый закадровый) Юрий Живов
Cубтитры: нет
Режиссер: Кевин Коннор / Kevin Connor
В ролях: Даг МакКлёр, Питер Гилмор, Шэйн Риммер, Лиа Броди, Майкл Гозард, Хэл Гэлили, Джон Ратценбергер, Дерри Пауэр, Дональд Биссет, Эшли Найт
Описание: Английские ученые отправляются на поиски затерянных цивилизаций на научном судне. При первом же погружении батисферы на нее нападают плавающие чудовища и утаскивают в… подводный город, где укрываются остатки затонувшей Атлантиды. Местные вожди способны управлять тварями вроде гигантского спрута или доисторических амфибий как своими механизмами. К тому же, они способны заглядывать в будущее. Англичанам стоит немалых трудов покинуть этих не обремененных гостеприимством хозяев.

Качество видео: DVDRip
Формат видео: AVI
Видео: 656x368 (1.78:1), 25 fps, XviD build 65 ~990 kbps avg, 0.16 bit/pixel
Аудио 1: 48 kHz, MPEG Layer 3, 2 ch, ~128.00 kbps avg Дубляж + Живов
Аудио 2: 48 kHz, MPEG Layer 3, 2 ch, ~128.00 kbps avg Живов Отдельно
Нехватает момента с 00:03:51,880 (22) по 00:03:55,360 (09) - раз.3,480 сек
Нехватает момента с 00:04:06,160 (04) по 00:04:06,520 (13) - раз.0,360 сек
Нехватает момента с 00:14:05,840 (21) по 00:14:29,600 (15) - раз.23,760 (19)сек
Нехватает момента с 00:21:08,800 (20) по 00:21:09,440 (11) - раз.0,640 (16)сек
Нехватает момента с 00:21:38,200 (05) по 00:21:54,720 (18) - раз.16,52 (12)сек
Нехватает момента с 00:23:52,640 (16) по 00:24:06,160 (04) - раз.16,52 (12)сек
Нехватает момента с 00:27:04,840 (21) по 00:27:31,800 (20) - раз.26,96 (24)сек
Нехватает момента с 00:27:48,200 (05) по 00:27:50,560 (14) - раз.2,36 (6)сек
Нехватает момента с 00:36:05,120 (03) по 00:36:24,080 (02) - раз.18,96 (24)сек
Нехватает момента с 00:36:38,880 (22) по 00:36:48,880 (22) - раз.10,00 (00)сек
Нехватает момента с 00:54:40,840 (21) по 00:54:44,560 (14) - раз.3,72 (18)сек
Нехватает момента с 00:59:06,120 (03) по 00:59:32,840 (21) - раз.26,72 (18)сек
Нехватает момента с 01:19:36,280 (07) по 01:19:36,800 (20) - раз.00,52 (13)сек
Нехватает момента с 01:20:04,880 (22) по 01:20:39,000 (00) - раз.34,120 (03)сек
Нехватает момента с 01:29:06,040 (01) по 01:29:07,360 (09) - раз.1,320 (08)сек
Нехватает момента с 01:31:35,280 (07) по 01:32:23,800 (20) - раз.48,520 (13)сек
General
Complete name : E:\Рипы фильмов\Warlords of Atlantis.1978.RUS.DVDRip.XviD.MPEG Audio\Warlords of Atlantis.1978.RUS.DVDRip.XviD.MPEG Audio.avi
Format : AVI
Format/Info : Audio Video Interleave
File size : 746 MiB
Duration : 1h 32mn
Overall bit rate : 1 128 Kbps
Writing application : VirtualDubMod 1.5.10.2 (build 2540/release)
Writing library : VirtualDubMod build 2540/release
Video
ID : 0
Format : MPEG-4 Visual
Format profile : Advanced Simple@L5
Format settings, BVOP : 1
Format settings, QPel : No
Format settings, GMC : No warppoints
Format settings, Matrix : Custom
Codec ID : XVID
Codec ID/Hint : XviD
Duration : 1h 32mn
Bit rate : 990 Kbps
Width : 656 pixels
Height : 368 pixels
Display aspect ratio : 16:9
Frame rate : 25.000 fps
Color space : YUV
Chroma subsampling : 4:2:0
Bit depth : 8 bits
Scan type : Progressive
Compression mode : Lossy
Bits/(Pixel*Frame) : 0.164
Stream size : 655 MiB (88%)
Writing library : XviD 65
Audio
ID : 1
Format : MPEG Audio
Format version : Version 1
Format profile : Layer 3
Mode : Joint stereo
Mode extension : MS Stereo
Codec ID : 55
Codec ID/Hint : MP3
Duration : 1h 32mn
Bit rate mode : Constant
Bit rate : 128 Kbps
Channel(s) : 2 channels
Sampling rate : 48.0 KHz
Compression mode : Lossy
Stream size : 84.6 MiB (11%)
Alignment : Aligned on interleaves
Interleave, duration : 40 ms (1.00 video frame)
Interleave, preload duration : 504 ms
Writing library : LAME3.99r
Encoding settings : -m j -V 4 -q 2 -lowpass 17 -b 128



Скачать Вожди.Атлантиды.Warlords.of.Atlantis.(Кевин.Коннор).[1978.фантастика.фэнтези.приключения.DVDRip].[Dub].+.[AVO].(Живов).torrent без регистрации
Золото ЗОЛОТАЯ РАЗДАЧА! СКАЧАННОЕ НЕ ЗАСЧИТЫВАЕТСЯ! Золото
Дата: Зарегистрирован   [ Тип: внутренний ] Как тут cкачать?
MAGNET ссылка
MAGNET ссылка


Скачать .torrent

17 KB

Статус: проверено DHT
Скачан: торрент - 137 раз, раздача полностью - 35 раз
Размер: 830 MB
Оценка:  5 (Голосов: 1)
Поблагодарили: 3
Поделиться ссылкой на эту раздачу с друзьями:
В контактеFacebookОдноклассникиTwitterLivejournalМой МирLiveinternet
 

 
Показать сообщения:    


Вы не можете начинать темы
Вы не можете отвечать на сообщения
Вы не можете редактировать свои сообщения
Вы не можете удалять свои сообщения
Вы не можете голосовать в опросах
Вы не можете прикреплять файлы к сообщениям
Вы можете скачивать файлы