Loading...
Error

Скачать Обман / Deception (01-04 из 11) (Питер Хортон, Дэн Лернер) [2012, драма, WEB-DLRip] [DVO (Причудики)] торрент без регистрации

 
Статистика раздачи
Размер:  3,15 GB   |    Скачан:  165 раз
Сидов:  1  [  0 KB/s  ]  
 
Автор Сообщение

МихаНЕзатор

[] 

Название: Обман
Оригинальное название: Deception
Год выпуска: 2012
Страна: США
Жанр: драма
Продолжительность: 10 х ~ 00:42:00
Перевод: Любительский (двухголосый, закадровый) - Причудики
Субтитры: Нет
Режиссер: Питер Хортон, Дэн Лернер

В ролях: Миган Гуд, Тейт Донован, Кэтрин ЛаНаса, Лас Алонсо, Марин Хинкль, Уэс Браун, Элла Рэй Пек, Виктор Гарбер, Стерлинг Джеринс

Описание: Молодая наследница огромного состояния клана Бауэрсов убита при загадочных обстоятельствах и её смерть расследует женщина-детектив Джоанна Локасто. Джоанна является дочерью прислуги Бауэрсов и была в детстве подругой погибшей, и чтобы раскрыть дело внедряется в богатое семейство, а между расследованием невольно узнает самые сокровенные тайны людей, которых она когда то знала.



Качество: WEB-DLRip
Формат: AVI
Видео кодек: XviD
Аудио кодек: MP3
Видео: MPEG4, XviD, 720x400 (16:9), 23.976 fps, 1 597 Kbps (0.231 bit/pixel)
Аудио rus: MP3, 48.0 KHz, 2 ch, 128 Кбит/с
Аудио eng: MP3, 48.0 KHz, 2 ch, 128 Кбит/с

13.04.2013 г. торент обновлён, добавлена 3-4 серия!

01. Пилот
02. Nothing's Free, Little Girl
03. A Drop of Blood and a Microscope
Формат : AVI
Формат/Информация : Audio Video Interleave
Размер файла : 600 Мбайт
Продолжительность : 44 м.
Общий поток : 1867 Кбит/сек
Программа кодирования : VirtualDubMod 1.5.10.2 (build 2540/release)
Библиотека кодирования : VirtualDubMod build 2540/release

Видео
Идентификатор : 0
Формат : MPEG-4 Visual
Профиль формата : Advanced Simple@L5
Параметр BVOP формата : 2
Параметр QPel формата : Нет
Параметр GMC формата : Без точки перехода
Параметр матрицы формата : Выборочная
Идентификатор кодека : XVID
Идентификатор кодека/Подсказка : XviD
Продолжительность : 44 м.
Битрейт : 1597 Кбит/сек
Ширина : 720 пикс.
Высота : 400 пикс.
Соотношение сторон : 16:9
Частота кадров : 23,976 кадр/сек
Цветовое пространство : YUV
Подвыборка цветности : 4:2:0
Битовая глубина : 8 бит
Тип развёртки : Прогрессивная
Метод сжатия : С потерями
Бит/(Пиксели*Кадры) : 0.231
Размер потока : 513 Мбайт (86%)
Библиотека кодирования : XviD 64

Аудио #1
Идентификатор : 1
Формат : MPEG Audio
Версия формата : Version 1
Профиль формата : Layer 3
Режим : Joint stereo
Расширение режима : MS Stereo
Идентификатор кодека : 55
Идентификатор кодека/Подсказка : MP3
Продолжительность : 44 м.
Вид битрейта : Постоянный
Битрейт : 128 Кбит/сек
Каналы : 2 канала
Частота : 48,0 КГц
Метод сжатия : С потерями
Размер потока : 41,1 Мбайт (7%)
Выравнивание : Соединение по промежуткам
Продолжительность промежутка : 42 мс. (1,00 видеокадр)
Время предзагрузки промежутка : 504 ms
Библиотека кодирования : LAME3.99r
Настройки программы : -m j -V 4 -q 3 -lowpass 17 -b 128

Аудио #2
Идентификатор : 2
Формат : MPEG Audio
Версия формата : Version 1
Профиль формата : Layer 3
Режим : Joint stereo
Расширение режима : MS Stereo
Идентификатор кодека : 55
Идентификатор кодека/Подсказка : MP3
Продолжительность : 44 м.
Вид битрейта : Постоянный
Битрейт : 128 Кбит/сек
Каналы : 2 канала
Частота : 48,0 КГц
Метод сжатия : С потерями
Размер потока : 41,1 Мбайт (7%)
Выравнивание : Соединение по промежуткам
Продолжительность промежутка : 42 мс. (1,00 видеокадр)
Время предзагрузки промежутка : 504 ms
Библиотека кодирования : LAME3.98r
Настройки программы : -m j -V 4 -q 2 -lowpass 17 -b 128



Скачать Обман.Deception.(01-04.из.11).(Питер.Хортон.Дэн.Лернер).[2012.драма.WEB-DLRip].[DVO.(Причудики)].torrent без регистрации
Золото ЗОЛОТАЯ РАЗДАЧА! СКАЧАННОЕ НЕ ЗАСЧИТЫВАЕТСЯ! Золото
Дата: Зарегистрирован   [ Тип: внутренний ] Как тут cкачать?
MAGNET ссылка
MAGNET ссылка


Скачать .torrent

17 KB

Статус: проверено DHT
Скачан: торрент - 165 раз, раздача полностью - 0 раз
Размер: 3,15 GB
Оценка:  - (Голосов: 0)
Поблагодарили: 0
Поделиться ссылкой на эту раздачу с друзьями:
В контактеFacebookОдноклассникиTwitterLivejournalМой МирLiveinternet
 

 

МихаНЕзатор

[] 

Раздача обновлена.
 
Показать сообщения:    


Вы не можете начинать темы
Вы не можете отвечать на сообщения
Вы не можете редактировать свои сообщения
Вы не можете удалять свои сообщения
Вы не можете голосовать в опросах
Вы не можете прикреплять файлы к сообщениям
Вы можете скачивать файлы