Loading...
Error

Скачать Обман / Deception (01-04 из 11) (Питер Хортон, Дэн Лернер) [2012, драма, WEB-DLRip] [720p] [DVO (Причудики)] торрент без регистрации

 
Статистика раздачи
Размер:  5,68 GB   |    Скачан:  162 раза
Сидов:  1  [  0 KB/s  ]  
 
Автор Сообщение

МихаНЕзатор

[] 

Название: Обман
Оригинальное название: Deception
Год выпуска: 2012
Страна: США
Жанр: Драма
Продолжительность: 10 х ~ 00:42:00
Перевод: Любительский (двухголосый, закадровый) - Причудики
Субтитры: Нет
Режиссер: Питер Хортон, Дэн Лернер

В ролях: Миган Гуд, Тейт Донован, Кэтрин ЛаНаса, Лас Алонсо, Марин Хинкль, Уэс Браун, Элла Рэй Пек, Виктор Гарбер, Стерлинг Джеринс

Описание: Молодая наследница огромного состояния клана Бауэрсов убита при загадочных обстоятельствах и её смерть расследует женщина-детектив Джоанна Локасто. Джоанна является дочерью прислуги Бауэрсов и была в детстве подругой погибшей, и чтобы раскрыть дело внедряется в богатое семейство, а между расследованием невольно узнает самые сокровенные тайны людей, которых она когда то знала.



Качество: WEB-DL 720p
Формат: MKV
Видео кодек: H.264
Аудио кодек: AC3
Видео: H.264, 1280x720 (16:9), 23.976 fps, ~3900 kbps, 0.178 bit/pixel
Аудио rus: AC3, 48 KHz, 2 ch, 192 kbps
Аудио eng: MP3, 48.0 KHz, 6 ch, 384 Кбит/с

13.04.2013 г. торент обновлён, добавлена 3-4 серия!

01. Пилот
02. Nothing's Free, Little Girl
03. A Drop of Blood and a Microscope
Формат : Matroska
Версия формата : Version 4 / Version 2
Размер файла : 1,44 Гбайт
Продолжительность : 44 м.
Общий поток : 4602 Кбит/сек
Дата кодирования : UTC 2013-01-07 10:42:09
Программа кодирования : mkvmerge v5.9.0 ('On The Loose') built on Dec 15 2012 16:39:58
Библиотека кодирования : libebml v1.3.0 + libmatroska v1.4.0

Видео
Идентификатор : 1
Формат : AVC
Формат/Информация : Advanced Video Codec
Профиль формата : High@L3.1
Параметр CABAC формата : Нет
Параметр ReFrames формата : 2 кадра
Идентификатор кодека : V_MPEG4/ISO/AVC
Продолжительность : 44 м.
Битрейт : 3935 Кбит/сек
Ширина : 1280 пикселей
Высота : 720 пикселей
Соотношение сторон : 16:9
Режим частоты кадров : Постоянный
Частота кадров : 23,976 кадра/сек
Цветовое пространство : YUV
Субдискретизация насыщенности : 4:2:0
Битовая глубина : 8 бит
Тип развёртки : Прогрессивная
Бит/(Пиксели*Кадры) : 0.178
Размер потока : 1,23 Гбайт (85%)
Язык : English
Default : Да
Forced : Нет
Основные цвета : BT.709
Характеристики трансфера : BT.709
Коэффициенты матрицы : BT.709

Аудио #1
Идентификатор : 2
Формат : AC-3
Формат/Информация : Audio Coding 3
Расширение режима : CM (complete main)
Параметр Endianness формата : Big
Идентификатор кодека : A_AC3
Продолжительность : 44 м.
Вид битрейта : Постоянный
Битрейт : 192 Кбит/сек
Каналы : 2 канала
Расположение каналов : Front: L R
Частота : 48,0 КГц
Битовая глубина : 16 бит
Метод сжатия : С потерями
Размер потока : 61,7 Мбайт (4%)
Язык : Russian
Default : Да
Forced : Да

Аудио #2
Идентификатор : 3
Формат : AC-3
Формат/Информация : Audio Coding 3
Расширение режима : CM (complete main)
Параметр Endianness формата : Big
Идентификатор кодека : A_AC3
Продолжительность : 44 м.
Вид битрейта : Постоянный
Битрейт : 384 Кбит/сек
Каналы : 6 каналов
Расположение каналов : Front: L C R, Side: L R, LFE
Частота : 48,0 КГц
Битовая глубина : 16 бит
Метод сжатия : С потерями
Размер потока : 123 Мбайт (8%)
Язык : English
Default : Нет
Forced : Нет



Скачать Обман.Deception.(01-04.из.11).(Питер.Хортон.Дэн.Лернер).[2012.драма.WEB-DLRip].[720p].[DVO.(Причудики)].torrent без регистрации
Золото ЗОЛОТАЯ РАЗДАЧА! СКАЧАННОЕ НЕ ЗАСЧИТЫВАЕТСЯ! Золото
Дата: Зарегистрирован   [ Тип: внутренний ] Как тут cкачать?
MAGNET ссылка
MAGNET ссылка


Скачать .torrent

15 KB

Статус: проверено DHT
Скачан: торрент - 162 раз, раздача полностью - 0 раз
Размер: 5,68 GB
Оценка:  5 (Голосов: 1)
Поблагодарили: 1
Поделиться ссылкой на эту раздачу с друзьями:
В контактеFacebookОдноклассникиTwitterLivejournalМой МирLiveinternet
 

 

МихаНЕзатор

[] 

Раздача обновлена
 
Показать сообщения:    


Вы не можете начинать темы
Вы не можете отвечать на сообщения
Вы не можете редактировать свои сообщения
Вы не можете удалять свои сообщения
Вы не можете голосовать в опросах
Вы не можете прикреплять файлы к сообщениям
Вы можете скачивать файлы