Loading...
Error

Скачать Сплошные неприятности / Double Trouble / Non c'e due senza quattro (Энцо Барбони / Enzo Barboni) [1984 г., комедия, BDRip-AVC] [DVO] + [Original] (eng) + [Dub] (ita) торрент без регистрации

 
Статистика раздачи
Размер:  2,18 GB   |    Скачан:  124 раза
Сидов:  1  [  0 KB/s  ]  
 
Автор Сообщение

leon030982

[] 

Сплошные неприятности / Double Trouble / Non c'e due senza quattro


Год выпуска: 1984
Страна: Италия
Жанр: комедия
Продолжительность: 01:43:50
Перевод: Профессиональный (двухголосный, закадровый)
Cубтитры: нет
Оригинальная аудиодорожка: английский

Режиссер: Энцо Барбони / Enzo Barboni

В ролях: Теренс Хилл, Бад Спенсер, Эйприл Клоф, Харольд Бергман, С.В. Вуд мл., Дарий Реис, Нелло Паццафини, Хосе Ван Де Кэмп, Фернандо Амарал, Роберто Рони

Описание: Побитые жизнью каскадер и саксофонист знакомятся, когда их приглашают подменить на время сверхбогатых, избалованных и изнеженных бразильских кузенов, за плату в $1 млн. А в это время за кузенами охотится опасная банда...

Сэмпл: http://multi-up.com/814024
Качество видео: BDRip-AVC
Формат видео: MKV
Видео: 928x500 (1.85:1), 23.976 fps, AVC (H.264) ~2520 kbps avg, 0.227 bit/pixel
Аудио 1: Russian (48 kHz, AC3, 2 ch, ~192 kbps) (двухголосый)
Аудио 2: Italiano (48 kHz, AC3, 2 ch, ~192 kbps) (дубляж)
Аудио 3: English (48 kHz, AAC-LC, 1 ch, ~100 kbps) (оригинал)
Общее
Уникальный идентификатор : 247172487739060562580891835720274352873 (0xB9F3B086C6EBD6B195E84E91F6C51AE9)
Полное имя : D:\KINO\Сплошные неприятности.mkv
Формат : Matroska
Версия формата : Version 2
Размер файла : 2,18 Гбайт
Продолжительность : 1 ч. 43 м.
Общий поток : 3006 Кбит/сек
Дата кодирования : UTC 2013-01-08 17:47:33
Программа кодирования : mkvmerge v4.0.0 ('The Stars were mine') сборка от Jun 6 2010 16:18:42
Библиотека кодирования : libebml v1.0.0 + libmatroska v1.0.0
Видео
Идентификатор : 1
Формат : AVC
Формат/Информация : Advanced Video Codec
Профиль формата : High@L4.1
Параметр CABAC формата : Да
Параметр ReFrames формата : 16 кадров
Идентификатор кодека : V_MPEG4/ISO/AVC
Продолжительность : 1 ч. 43 м.
Номинальный битрейт : 2520 Кбит/сек
Ширина : 928 пикселей
Высота : 500 пикселей
Соотношение сторон : 1,856
Частота кадров : 23,976 кадра/сек
Цветовое пространство : YUV
Субдискретизация насыщенности : 4:2:0
Битовая глубина : 8 бит
Тип развёртки : Прогрессивная
Бит/(Пиксели*Кадры) : 0.227
Библиотека кодирования : x264 core 129 r2230 1cffe9f
Настройки программы : cabac=1 / ref=16 / deblock=1:-2:-1 / analyse=0x3:0x133 / me=umh / subme=10 / psy=1 / psy_rd=1.00:0.10 / mixed_ref=1 / me_range=24 / chroma_me=1 / trellis=2 / 8x8dct=1 / cqm=0 / deadzone=21,11 / fast_pskip=1 / chroma_qp_offset=-3 / threads=3 / lookahead_threads=1 / sliced_threads=0 / nr=0 / decimate=1 / interlaced=0 / bluray_compat=0 / constrained_intra=0 / bframes=8 / b_pyramid=2 / b_adapt=2 / b_bias=0 / direct=3 / weightb=1 / open_gop=0 / weightp=2 / keyint=240 / keyint_min=23 / scenecut=40 / intra_refresh=0 / rc_lookahead=60 / rc=2pass / mbtree=1 / bitrate=2520 / ratetol=1.0 / qcomp=0.60 / qpmin=10 / qpmax=51 / qpstep=4 / cplxblur=20.0 / qblur=0.5 / vbv_maxrate=50000 / vbv_bufsize=50000 / nal_hrd=none / ip_ratio=1.40 / aq=1:1.00
Default : Нет
Forced : Нет
Аудио #1
Идентификатор : 2
Формат : AC-3
Формат/Информация : Audio Coding 3
Расширение режима : CM (complete main)
Идентификатор кодека : A_AC3
Продолжительность : 1 ч. 43 м.
Вид битрейта : Постоянный
Битрейт : 192 Кбит/сек
Каналы : 2 канала
Расположение каналов : Front: L R
Частота : 48,0 КГц
Битовая глубина : 16 бит
Метод сжатия : С потерями
Размер потока : 143 Мбайт (6%)
Заголовок : русский
Язык : Russian
Default : Да
Forced : Нет
Аудио #2
Идентификатор : 3
Формат : AC-3
Формат/Информация : Audio Coding 3
Расширение режима : CM (complete main)
Идентификатор кодека : A_AC3
Продолжительность : 1 ч. 43 м.
Вид битрейта : Постоянный
Битрейт : 192 Кбит/сек
Каналы : 2 канала
Расположение каналов : Front: L R
Частота : 48,0 КГц
Битовая глубина : 16 бит
Метод сжатия : С потерями
Размер потока : 143 Мбайт (6%)
Заголовок : итальянский
Язык : Italian
Default : Нет
Forced : Нет
Аудио #3
Идентификатор : 4
Формат : AAC
Формат/Информация : Advanced Audio Codec
Профиль формата : LC
Идентификатор кодека : A_AAC
Продолжительность : 1 ч. 43 м.
Каналы : 1 канал
Расположение каналов : Front: C
Частота : 48,0 КГц
Метод сжатия : С потерями
Заголовок : английский
Язык : English
Default : Нет
Forced : Нет
-[NoImage] avs [info]: 928x500p 1:1 @ 24000/1001 fps (cfr)
-[NoImage] x264 [info]: using SAR=1/1
-[NoImage] x264 [info]: using cpu capabilities: MMX2 SSE2Fast FastShuffle SSEMisalign LZCNT
-[NoImage] x264 [info]: profile High, level 4.1
-[NoImage]
-[NoImage] x264 [info]: frame I:1096 Avg QP:18.28 size: 86895
-[NoImage] x264 [info]: frame P:27941 Avg QP:21.56 size: 30877
-[NoImage] x264 [info]: frame B:120311 Avg QP:24.26 size: 8346
-[NoImage] x264 [info]: consecutive B-frames: 1.1% 0.8% 3.1% 15.4% 15.8% 43.9% 10.5% 4.2% 5.2%
-[NoImage] x264 [info]: mb I I16..4: 4.8% 68.8% 26.3%
-[NoImage] x264 [info]: mb P I16..4: 0.4% 8.4% 1.9% P16..4: 39.2% 26.9% 19.5% 1.1% 0.3% skip: 2.3%
-[NoImage] x264 [info]: mb B I16..4: 0.0% 0.9% 0.2% B16..8: 46.2% 12.2% 3.7% direct: 5.8% skip:31.0% L0:45.2% L1:46.1% BI: 8.7%
-[NoImage] x264 [info]: 8x8 transform intra:77.6% inter:60.6%
-[NoImage] x264 [info]: direct mvs spatial:98.8% temporal:1.2%
-[NoImage] x264 [info]: coded y,uvDC,uvAC intra: 92.2% 72.6% 37.8% inter: 31.2% 16.1% 1.4%
-[NoImage] x264 [info]: i16 v,h,dc,p: 31% 17% 18% 34%
-[NoImage] x264 [info]: i8 v,h,dc,ddl,ddr,vr,hd,vl,hu: 13% 7% 7% 10% 14% 13% 13% 11% 11%
-[NoImage] x264 [info]: i4 v,h,dc,ddl,ddr,vr,hd,vl,hu: 27% 7% 4% 8% 12% 12% 11% 10% 10%
-[NoImage] x264 [info]: i8c dc,h,v,p: 37% 27% 22% 14%
-[NoImage] x264 [info]: Weighted P-Frames: Y:6.0% UV:1.0%
-[NoImage] x264 [info]: ref P L0: 36.0% 12.2% 18.6% 6.1% 6.4% 3.7% 4.2% 1.8% 2.2% 1.4% 1.8% 1.2% 1.4% 1.0% 1.3% 0.7%
-[NoImage] x264 [info]: ref B L0: 67.6% 12.5% 6.0% 3.3% 2.3% 2.0% 1.5% 1.0% 0.8% 0.8% 0.6% 0.6% 0.5% 0.3% 0.1%
-[NoImage] x264 [info]: ref B L1: 92.3% 7.7%
-[NoImage] x264 [info]: kb/s:2519.94
-[NoImage] encoded 149348 frames, 3.04 fps, 2519.94 kb/s



Скачать Сплошные.неприятности.Double.Trouble.Non.c'e.due.senza.quattro.(Энцо.Барбони.Enzo.Barboni).[1984.г.комедия.BDRip-AVC].[DVO].+.[Original].(eng).+.[Dub].(ita).torrent без регистрации
Золото ЗОЛОТАЯ РАЗДАЧА! СКАЧАННОЕ НЕ ЗАСЧИТЫВАЕТСЯ! Золото
Дата: Зарегистрирован   [ Тип: внутренний ] Как тут cкачать?
MAGNET ссылка
MAGNET ссылка


Скачать .torrent

11 KB

Статус: проверено DHT
Скачан: торрент - 124 раз, раздача полностью - 21 раз
Размер: 2,18 GB
Оценка:  - (Голосов: 0)
Поблагодарили: 1
Поделиться ссылкой на эту раздачу с друзьями:
В контактеFacebookОдноклассникиTwitterLivejournalМой МирLiveinternet
 

 
Показать сообщения:    


Вы не можете начинать темы
Вы не можете отвечать на сообщения
Вы не можете редактировать свои сообщения
Вы не можете удалять свои сообщения
Вы не можете голосовать в опросах
Вы не можете прикреплять файлы к сообщениям
Вы можете скачивать файлы