Loading...
Error

Скачать Морпехи / Jarhead (Сэм Мендес) [2005, драма, военный, биография, HDRip] [Dub] торрент без регистрации

 
Статистика раздачи
Размер:  746 MB   |    Скачан:  149 раз
Сидов:  1  [  0 KB/s  ]  
 
Автор Сообщение

МихаНЕзатор

[] 

Информация о фильме
Название: Морпехи
Оригинальное название: Jarhead
Год выхода: 2005
Жанр: драма, военный, биография
Режиссер: Сэм Мендес / Sam Mendes
В ролях: Джейк Джилленхол, Питер Сарсгаард, Крис Купер, Джейми Фокс, Лукас Блэк, Брайан Джерати, Джейкоб Варгас, Лас Алонсо, Ивэн Джонс, Деннис Хейсбёрт

О фильме: Действие картины разворачивается во время войны в Персидском заливе. Морской пехотинец Энтони Суоффорд потомственный военный. После курса подготовки в специальном лагере его отправляют на Ближний Восток, где идут военные действия.
Со снайперской винтовкой в руках и с тяжелым рюкзаком за плечами ему предстоит проделать нелегкий путь по пустыне, где нет спасения от невыносимой жары и иракских солдат, которые в любую минуту могут появиться на горизонте.
Суоффорд и его друзья-однополчане делают все возможное, чтобы поддержать друг друга в этой сложной обстановке. Чувствуя себя совершенно чужими в этой стране, они вынуждены сражаться с невидимым врагом за неведомые им идеалы

Страна: Германия, США
Продолжительность: 02:02:42
Перевод: Профессиональный (дублированный)

Файл
Кодек: XviD
Качество: HDRip
Видео: 640x272 (2.35:1), 23.976 fps, 729 Kbps, 0.175 Bits/(Pixel*Frame)
Звук: MP3, 44.1 KHz, 112 Kbps, 2 channels

General
Complete name : D:Morpehi.2005.HDRip.XviD.746mb.avi
Format : AVI
Format/Info : Audio Video Interleave
File size : 746 MiB
Duration : 2h 2mn
Overall bit rate : 850 Kbps
Writing application : VirtualDubMod 1.5.10.2 (build 2540/release)
Writing library : VirtualDubMod build 2540/release

Video
ID : 0
Format : MPEG-4 Visual
Format profile : Advanced Simple@L5
Format settings, BVOP : 1
Format settings, QPel : No
Format settings, GMC : No warppoints
Format settings, Matrix : Custom
Codec ID : XVID
Codec ID/Hint : XviD
Duration : 2h 2mn
Bit rate : 729 Kbps
Width : 640 pixels
Height : 272 pixels
Display aspect ratio : 2.35:1
Frame rate : 23.976 fps
Color space : YUV
Chroma subsampling : 4:2:0
Bit depth : 8 bits
Scan type : Progressive
Compression mode : Lossy
Bits/(Pixel*Frame) : 0.175
Stream size : 640 MiB (86%)
Writing library : XviD 1.2.1 (UTC 2008-12-04)

Audio
ID : 1
Format : MPEG Audio
Format version : Version 1
Format profile : Layer 3
Codec ID : 55
Codec ID/Hint : MP3
Duration : 2h 2mn
Bit rate mode : Constant
Bit rate : 112 Kbps
Channel(s) : 2 channels
Sampling rate : 44.1 KHz
Compression mode : Lossy
Stream size : 98.3 MiB (13%)
Alignment : Split accross interleaves
Interleave, duration : 42 ms (1.00 video frame)
Interleave, preload duration : 500 ms
Writing library : LAME3.98r
Encoding settings : -m s -V 4 -q 2 -lowpass 15.6 -b 112











Скачать Морпехи.Jarhead.(Сэм.Мендес).[2005.драма.военный.биография.HDRip].[Dub].torrent без регистрации
Золото ЗОЛОТАЯ РАЗДАЧА! СКАЧАННОЕ НЕ ЗАСЧИТЫВАЕТСЯ! Золото
Дата: Зарегистрирован   [ Тип: внутренний ] Как тут cкачать?
MAGNET ссылка
MAGNET ссылка


Скачать .torrent

15 KB

Статус: проверено DHT
Скачан: торрент - 149 раз, раздача полностью - 553 раз
Размер: 746 MB
Оценка:  5 (Голосов: 2)
Поблагодарили: 2
Поделиться ссылкой на эту раздачу с друзьями:
В контактеFacebookОдноклассникиTwitterLivejournalМой МирLiveinternet
 

 
Показать сообщения:    


Вы не можете начинать темы
Вы не можете отвечать на сообщения
Вы не можете редактировать свои сообщения
Вы не можете удалять свои сообщения
Вы не можете голосовать в опросах
Вы не можете прикреплять файлы к сообщениям
Вы можете скачивать файлы