Loading...
Error

Скачать Шугар Хилл / Sugar Hill (Леон Ичасо) [1993, драма, триллер, DVDRip] [MVO] [Лицензия] торрент без регистрации

 
Статистика раздачи
Размер:  1,46 GB   |    Скачан:  111 раз
Сидов:  1  [  0 KB/s  ]  
 
Автор Сообщение

Marsianka

[] 

Год выпуска: 1993
Страна: США
Студия: Beacon Communications LLC, Ghiznoz Productions, South Street Films
Жанр: драма, триллер
Продолжительность: 02:03:37

Перевод: Профессиональный (многоголосый закадровый) лицензия
Субтитры: нет
Оригинальная аудиодорожка: нет

Режиссер: Леон Ичасо /Leon Ichaso

В ролях: Уэсли Снайпс / Wesley Snipes, Майкл Райт / Michael Wright, Тереза Рэндл / Theresa Randle, Сэм Боттомс / Sam Bottoms, Джо Даллесандро / Joe Dallesandro, Эрни Хадсон / Ernie Hudson...

Описание: Два брата- Ромело и Рэй -ведут преступный бизнес в Гарлеме, мстя обидчикам отца и отражая натиск конкурентов. Жестокая действительность жестокие методы, но Ромело, сочетающий качества интеллектуала и супермена, пытается выйти из игры начать спокойную жизнь с красавицей Мелиссой

Исходник: DVD9 R5
Тип релиза: DVDRip
Контейнер: AVI

Видео: 688x528 (4:3), 25 fps, XviD ~ 1550 kbps avg, 0.171 bit/pixel
Аудио: 48 kHz, MP3, 2 ch, 128.00 kbps

Раздача от
Общее
Полное имя : Shugar.Hill.1993.DVDRip_[Youtracker]_by_AVP Studio.avi
Формат : AVI
Формат/Информация : Audio Video Interleave
Размер файла : 1,46 Гбайт
Продолжительность : 2 ч. 3 м.
Общий поток : 1687 Кбит/сек
Программа кодирования : VirtualDubMod 1.5.10.3 | www.virtualdub-fr.org || (build 2550/release)
Библиотека кодирования : VirtualDubMod build 2550/release

Видео
Идентификатор : 0
Формат : MPEG-4 Visual
Профиль формата : Advanced Simple@L5
Параметр BVOP формата : 1
Параметр QPel формата : Нет
Параметр GMC формата : Без точки перехода
Параметр матрицы формата : Выборочная
Идентификатор кодека : XVID
Идентификатор кодека/Подсказка : XviD
Продолжительность : 2 ч. 3 м.
Битрейт : 1550 Кбит/сек
Ширина : 688 пикселей
Высота : 528 пикселей
Соотношение сторон : 4:3
Частота кадров : 25,000 кадров/сек
Цветовое пространство : YUV
Субдискретизация насыщенности : 4:2:0
Битовая глубина : 8 бит
Тип развёртки : Прогрессивная
Метод сжатия : С потерями
Бит/(Пиксели*Кадры) : 0.171
Размер потока : 1,34 Гбайт (92%)
Библиотека кодирования : XviD 65

Аудио
Идентификатор : 1
Формат : MPEG Audio
Версия формата : Version 1
Профиль формата : Layer 3
Идентификатор кодека : 55
Идентификатор кодека/Подсказка : MP3
Продолжительность : 2 ч. 3 м.
Вид битрейта : Постоянный
Битрейт : 128 Кбит/сек
Каналы : 2 канала
Частота : 48,0 КГц
Метод сжатия : С потерями
Размер потока : 113 Мбайт (8%)
Выравнивание : Соединение по промежуткам
Продолжительность промежутка : 40 мс. (1,00 видеокадр)
Время предзагрузки промежутка : 504 мс.
Библиотека кодирования : L3.99r
Настройки программы : -m s -V 4 -q 2 -lowpass 17 -b 128



Скачать Шугар.Хилл.Sugar.Hill.(Леон.Ичасо).[1993.драма.триллер.DVDRip].[MVO].[Лицензия].torrent без регистрации
Золото ЗОЛОТАЯ РАЗДАЧА! СКАЧАННОЕ НЕ ЗАСЧИТЫВАЕТСЯ! Золото
Дата: Зарегистрирован   [ Тип: внутренний ] Как тут cкачать?
MAGNET ссылка
MAGNET ссылка


Скачать .torrent

15 KB

Статус: проверено DHT
Скачан: торрент - 111 раз, раздача полностью - 4 раз
Размер: 1,46 GB
Оценка:  - (Голосов: 0)
Поблагодарили: 1
Поделиться ссылкой на эту раздачу с друзьями:
В контактеFacebookОдноклассникиTwitterLivejournalМой МирLiveinternet
 

 
Показать сообщения:    


Вы не можете начинать темы
Вы не можете отвечать на сообщения
Вы не можете редактировать свои сообщения
Вы не можете удалять свои сообщения
Вы не можете голосовать в опросах
Вы не можете прикреплять файлы к сообщениям
Вы можете скачивать файлы