Loading...
Error

Скачать Остров Кима / Робинзон на Луне / Castaway on the Moon / Kimssi pyoryugi (Хэ Чжун Ли / Hey-jun Lee) [2009, драма, мелодрама, комедия, BDRip] [VO] (Александр Райдер) торрент без регистрации

 
Статистика раздачи
Размер:  1,46 GB   |    Скачан:  123 раза
Сидов:  1  [  0 KB/s  ]  
 
Автор Сообщение

leon030982

[] 

Остров Кима / Робинзон на Луне
Castaway on the Moon / Kimssi pyoryugi
Год выпуска: 2009
Страна: Южная Корея
Жанр: драма, мелодрама, комедия
Продолжительность: 01:56:14
Перевод: Одноголосый закадровый [Александр Райдер]
Субтитры: норвежские хардсабы
Режиссёр: Хэ Чжун Ли / Hey-jun Lee
В ролях: Min-heui Hong, Со Янг, Чон Чжэ Ён (Kim Seong-geun), Чон Рё Вон, Gyo-hwan Koo, Чен-вон Ли, Sang-hun Lee, Sang-il Lee, Kyeong-jin Min, Ри Мин, Пак Ён Со, Hak Seon

Описание: Неудачник Ким решает свести счёты с жизнью, бросившись с моста в реку Хан. Он не умеет плавать, так что смерть придёт быстро. Но по нелепой случайности его выносит на берег необитаемого острова, который находится около моста.
В это же время, одна затворница, которая уже не выходит из своей комнаты 2 года, смотрит из окна, и видит мужчину на острове, а рядом надпись «HELP».

Качество видео: BDRip [Blu-ray {Volshebnik @ HDCLUB} 1080p]
Формат: AVI
Видео: XviD, 720x304 (2.35:1), 24 fps, ~1410 kbps, 0.269 bpp
Аудио: Русский: AC3, 48 kHz, 3/2 (L,C,R,l,r) + LFE ch, 16 bit, ~384 kbps
Особая благодарность в адрес Nez'а за выделение перевода.
Релиз на основе норвежского Blu-ray, купленного специально для HDCLUB by crazy_gringo.
Присутствуют норвежские ХАРДСАБЫ.
General
Complete name : Castaway.on.the.Moon.2009.BDRip.XviD.AC3.VO.Rider.avi
Format : AVI
Format/Info : Audio Video Interleave
File size : 1.46 GiB
Duration : 1h 56mn
Overall bit rate : 1 804 Kbps
Writing application : VirtualDubMod 1.5.10.3 | www.virtualdub-fr.org || (build 2550/release)
Writing library : VirtualDubMod build 2550/release
Video
ID : 0
Format : MPEG-4 Visual
Format profile : Advanced Simple@L5
Format settings, BVOP : 2
Format settings, QPel : No
Format settings, GMC : No warppoints
Format settings, Matrix : Custom
Codec ID : XVID
Codec ID/Hint : XviD
Duration : 1h 56mn
Bit rate : 1 411 Kbps
Width : 720 pixels
Height : 304 pixels
Display aspect ratio : 2.35:1
Frame rate : 24.000 fps
Color space : YUV
Chroma subsampling : 4:2:0
Bit depth : 8 bits
Scan type : Progressive
Compression mode : Lossy
Bits/(Pixel*Frame) : 0.269
Stream size : 1.15 GiB (78%)
Writing library : XviD 65
Audio
ID : 1
Format : AC-3
Format/Info : Audio Coding 3
Mode extension : CM (complete main)
Codec ID : 2000
Duration : 1h 56mn
Bit rate mode : Constant
Bit rate : 384 Kbps
Channel(s) : 6 channels
Channel positions : Front: L C R, Side: L R, LFE
Sampling rate : 48.0 KHz
Bit depth : 16 bits
Compression mode : Lossy
Stream size : 319 MiB (21%)
Alignment : Split accross interleaves
Interleave, duration : 42 ms (1.00 video frame)
Interleave, preload duration : 500 ms



Скачать Остров.Кима.Робинзон.на.Луне.Castaway.on.the.Moon.Kimssi.pyoryugi.(Хэ.Чжун.Ли.Hey-jun.Lee).[2009.драма.мелодрама.комедия.BDRip].[VO].(Александр.Райдер).torrent без регистрации
Золото ЗОЛОТАЯ РАЗДАЧА! СКАЧАННОЕ НЕ ЗАСЧИТЫВАЕТСЯ! Золото
Дата: Зарегистрирован   [ Тип: внутренний ] Как тут cкачать?
MAGNET ссылка
MAGNET ссылка


Скачать .torrent

15 KB

Статус: проверено DHT
Скачан: торрент - 123 раз, раздача полностью - 34 раз
Размер: 1,46 GB
Оценка:  - (Голосов: 0)
Поблагодарили: 1
Поделиться ссылкой на эту раздачу с друзьями:
В контактеFacebookОдноклассникиTwitterLivejournalМой МирLiveinternet
 

 
Показать сообщения:    


Вы не можете начинать темы
Вы не можете отвечать на сообщения
Вы не можете редактировать свои сообщения
Вы не можете удалять свои сообщения
Вы не можете голосовать в опросах
Вы не можете прикреплять файлы к сообщениям
Вы можете скачивать файлы