Loading...
Error

Скачать Прогулка в облаках / A Walk in the Clouds (Альфонсо Арау) [1995, драма, мелодрама, BDRip-AVC] [DVO (НТВ+)] торрент без регистрации

 
Статистика раздачи
Размер:  1,49 GB   |    Скачан:  162 раза
Сидов:  1  [  0 KB/s  ]  
 
Автор Сообщение

GOLDENBOY

[] 


Прогулка в облаках / A Walk in the Clouds


Год выпуска: 1995
Выпущено: США, Мексика
Жанр: драма, мелодрама
Продолжительность: 01:42:15
Перевод: Русский Профессиональный (Закадровый двухголосый НТВ+)

Режиссер: Альфонсо Арау

В ролях: Киану Ривз, Айтана Санчес-Хихон, Энтони Куинн...

Описание: Пол возвращается с войны. Его жена, на которой он скоропалительно женился в одном из отпусков, оказывается для него совсем чужим человеком… По пути в Сакраменто (он работал коммивояжёром — продавал шоколад) бывший солдат защитил красивую девушку Викторию Арагон от хулиганов, и она рассказала ему, что забеременела, а жених её бросил, и она боится возвращаться в дом строгих родителей, католиков мексиканского просхождения. Пол предложил выдать себя за мужа. Он задержался на день, на два, на неделю, постепенно влечение переросло в любовь, он узнал её семью, крутого отца, настроенного против этого брака, деда и, сам будучи сиротой, полюбил этих людей.



Доп. информация: Золотой глобус за музыку к фильму (композитор Морис Жарр).

Качество: BDRip-AVC
Формат: MKV
Видео кодек: AVC, x264
Аудио кодек: AC3
Видео: 1280x694, 1895 Кбит/сек, 23.976 кадр/сек
Аудио: AC3 2.0, 192 Кбит/сек


Complete name : Прогулка в облаках - A Walk in the Clouds (Киану Ривз, Айтана Санчез-Хихон, Энтони Куинн)_1995.mkv
Format : Matroska
Format version : Version 2
File size : 1.49 GiB
Duration : 1h 42mn
Overall bit rate : 2 088 Kbps
Movie name : Прогулка в облаках - A Walk in the Clouds (Киану Ривз, Айтана Санчез-Хихон, Энтони Куинн)_1995
Encoded date : UTC 2013-01-08 14:46:19
Writing application : mkvmerge v4.0.0 ('The Stars were mine') сборка от Jun 6 2010 16:18:42
Writing library : libebml v1.0.0 + libmatroska v1.0.0

Video
ID : 1
Format : AVC
Format/Info : Advanced Video Codec
Format profile : High@L4.1
Format settings, CABAC : Yes
Format settings, ReFrames : 3 frames
Codec ID : V_MPEG4/ISO/AVC
Duration : 1h 42mn
Bit rate : 1 895 Kbps
Width : 1 280 pixels
Height : 694 pixels
Display aspect ratio : 16:9
Frame rate : 23.976 fps
Color space : YUV
Chroma subsampling : 4:2:0
Bit depth : 8 bits
Scan type : Progressive
Bits/(Pixel*Frame) : 0.089
Stream size : 1.32 GiB (89%)
Title : A Walk in the Clouds_1995
Writing library : x264 core 112 r1834 a51816a
Encoding settings : cabac=1 / ref=3 / deblock=1:0:0 / analyse=0x3:0x133 / me=umh / subme=7 / psy=1 / psy_rd=1.00:0.00 / mixed_ref=1 / me_range=16 / chroma_me=1 / trellis=1 / 8x8dct=1 / cqm=0 / deadzone=21,11 / fast_pskip=1 / chroma_qp_offset=-2 / threads=3 / sliced_threads=0 / nr=0 / decimate=1 / interlaced=0 / constrained_intra=0 / bframes=3 / b_pyramid=0 / b_adapt=1 / b_bias=0 / direct=1 / weightb=1 / open_gop=0 / weightp=2 / keyint=250 / keyint_min=23 / scenecut=40 / intra_refresh=0 / rc_lookahead=40 / rc=2pass / mbtree=1 / bitrate=1895 / ratetol=1.0 / qcomp=0.60 / qpmin=0 / qpmax=51 / qpstep=4 / cplxblur=20.0 / qblur=0.5 / ip_ratio=1.40 / aq=1:1.00
Language : English
Default : No
Forced : No

Audio
ID : 2
Format : AC-3
Format/Info : Audio Coding 3
Mode extension : CM (complete main)
Codec ID : A_AC3
Duration : 1h 42mn
Bit rate mode : Constant
Bit rate : 192 Kbps
Channel(s) : 2 channels
Channel positions : Front: L R
Sampling rate : 48.0 KHz
Bit depth : 16 bits
Compression mode : Lossy
Stream size : 140 MiB (9%)
Title : DVO(НТВ+)
Language : Russian
Default : Yes
Forced : No







Скачать Прогулка.в.облаках.A.Walk.in.the.Clouds.(Альфонсо.Арау).[1995.драма.мелодрама.BDRip-AVC].[DVO.(НТВ+)].torrent без регистрации
Золото ЗОЛОТАЯ РАЗДАЧА! СКАЧАННОЕ НЕ ЗАСЧИТЫВАЕТСЯ! Золото
Дата: Зарегистрирован   [ Тип: внутренний ] Как тут cкачать?
MAGNET ссылка
MAGNET ссылка


Скачать .torrent

15 KB

Статус: проверено DHT
Скачан: торрент - 162 раз, раздача полностью - 3 раз
Размер: 1,49 GB
Оценка:  5 (Голосов: 1)
Поблагодарили: 4
Поделиться ссылкой на эту раздачу с друзьями:
В контактеFacebookОдноклассникиTwitterLivejournalМой МирLiveinternet
 

 
Показать сообщения:    


Вы не можете начинать темы
Вы не можете отвечать на сообщения
Вы не можете редактировать свои сообщения
Вы не можете удалять свои сообщения
Вы не можете голосовать в опросах
Вы не можете прикреплять файлы к сообщениям
Вы можете скачивать файлы