Loading...
Error

Скачать Запретная планета / Forbidden Planet (Фред М. Уилкокс / Fred M. Wilcox) [1956, фантастика, HDDVDRip] [DVO] + [Original Eng] + [Sub] (Rus, Eng) торрент без регистрации

 
Статистика раздачи
Размер:  2,44 GB   |    Скачан:  117 раз
Сидов:  1  [  0 KB/s  ]  
 
Автор Сообщение

leon030982

[] 

Запретная планета / Forbidden Planet


Год выпуска: 1956
Страна: США
Жанр: фантастика
Продолжительность: 01:38:30
Перевод: Профессиональный (двухголосый закадровый)
Cубтитры: русские
Оригинальная аудиодорожка: английский

Режиссер: Фред М. Уилкокс / Fred M. Wilcox

В ролях: Лесли Нильсен, Уолтер Пиджон, Энн Френсис, Уоррен Стивенс, Джек Келли, Ричард Андерсон, Эрл Холлиман, Джордж Уоллес, Роберт Дикс

Описание: Командир Адамс и его экипаж должны выяснить судьбу колонии землян в системе Альтаир IV, переставшей выходить на связь несколько лет назад. После года путешествия в гиперпространстве, корабль Объединенных Планет садится на планету, где они находят только двух живых человек — филолога Морбиуса и его сексапильную дочь Альтаиру.
Все остальные колонисты погибли по неизвестной причине. Морбиус настаивает, чтобы астронавты немедленно покинули планету, ибо он не может гарантировать их безопасность, но командир решает остаться. Той же ночью несколько человек погибает, буквально разорванные на части некоей неведомой и невидимой силой. Несмотря на все усилия экипажа, они не могут противостоять инопланетной угрозе.
Единственная их надежда — на могучего робота Робби, порождение внеземного разума, и юную Альтаиру.




Сэмпл: http://multi-up.com/814896
Доп. информация:
Качество видео: HDDVDRip
Формат видео: MKV
Видео: 1280x528 (2.40:1), 23.976 fps, AVC, ~2975 Kbps, 0.184 bits/pixel
Аудио 1: Russian, 48.0 KHz, AC3, 2 ch, 192 Kbps
Аудио 2: English, 48.0 KHz, AC3, 6 ch, 384 Kbps отдельным файлом
Формат субтитров: softsub (SRT)
...last pass...
x264.exe: --pass 2 --bitrate 2975 --preset medium --level 4.1 --ref 8 --deblock -1:-1 --merange 32 --direct auto --b-adapt 2 --trellis 2 --no-fast-pskip --psy-rd 1.00:0.10 --partitions all --subme 9 --me umh --rc-lookahead 50 --stats "D:\Temp\0030.log" --sar 1:1 --output "D:\Temp\0030.264" "D:\Temp\0030.avs"
avs [info]: 1280x528p 1:1 @ 2500000/104271 fps (cfr)
x264 [info]: using SAR=1/1
x264 [info]: using cpu capabilities: MMX2 SSE2Fast FastShuffle SSEMisalign LZCNT
x264 [info]: profile High, level 4.1
x264 [info]: frame I:796 Avg QP:19.31 size:109706
x264 [info]: frame P:36893 Avg QP:21.78 size: 32525
x264 [info]: frame B:104014 Avg QP:23.95 size: 8750
x264 [info]: consecutive B-frames: 0.8% 1.0% 8.9% 89.3%
x264 [info]: mb I I16..4: 3.7% 83.4% 13.0%
x264 [info]: mb P I16..4: 0.3% 3.7% 0.3% P16..4: 50.1% 24.3% 18.6% 0.4% 0.1% skip: 2.3%
x264 [info]: mb B I16..4: 0.0% 0.4% 0.0% B16..8: 44.7% 7.1% 1.9% direct: 5.2% skip:40.7% L0:44.4% L1:48.3% BI: 7.4%
x264 [info]: 8x8 transform intra:86.4% inter:61.4%
x264 [info]: direct mvs spatial:96.3% temporal:3.7%
x264 [info]: coded y,uvDC,uvAC intra: 94.2% 75.4% 40.6% inter: 28.3% 25.7% 1.4%
x264 [info]: i16 v,h,dc,p: 48% 22% 15% 16%
x264 [info]: i8 v,h,dc,ddl,ddr,vr,hd,vl,hu: 9% 8% 7% 9% 14% 13% 14% 11% 13%
x264 [info]: i4 v,h,dc,ddl,ddr,vr,hd,vl,hu: 9% 9% 3% 9% 14% 14% 15% 12% 15%
x264 [info]: i8c dc,h,v,p: 40% 25% 21% 14%
x264 [info]: Weighted P-Frames: Y:13.1% UV:3.4%
x264 [info]: ref P L0: 32.3% 11.2% 22.7% 7.7% 8.8% 5.6% 7.3% 3.6% 0.8% 0.0%
x264 [info]: ref B L0: 65.0% 16.7% 7.1% 4.3% 3.2% 2.5% 1.2%
x264 [info]: ref B L1: 93.2% 6.8%
x264 [info]: kb/s:2974.32
x264 [total]: encoded 141703 frames, 3.88 fps, 2974.32 kb/s
General
Unique ID : 177371408790017052666256431803994422273 (0x85707DA1931FC86C932411904DDB3C01)
Complete name : C:\Forbidden Planet\Forbidden Planet.mkv
Format : Matroska
Format version : Version 4 / Version 2
File size : 2.18 GiB
Duration : 1h 38mn
Overall bit rate : 3 168 Kbps
Encoded date : UTC 2010-02-22 21:41:31
Writing application : mkvmerge v5.9.0 ('On The Loose') built on Dec 9 2012 15:37:01
Writing library : libebml v1.3.0 + libmatroska v1.4.0
Video
ID : 1
Format : AVC
Format/Info : Advanced Video Codec
Format profile : High@L4.1
Format settings, CABAC : Yes
Format settings, ReFrames : 8 frames
Codec ID : V_MPEG4/ISO/AVC
Duration : 1h 38mn
Bit rate : 2 975 Kbps
Width : 1 280 pixels
Height : 528 pixels
Display aspect ratio : 2.40:1
Frame rate mode : Constant
Frame rate : 23.976 fps
Color space : YUV
Chroma subsampling : 4:2:0
Bit depth : 8 bits
Scan type : Progressive
Bits/(Pixel*Frame) : 0.184
Stream size : 2.00 GiB (92%)
Writing library : x264 core 128 r2216 198a7ea
Encoding settings : cabac=1 / ref=8 / deblock=1:-1:-1 / analyse=0x3:0x133 / me=umh / subme=9 / psy=1 / psy_rd=1.00:0.10 / mixed_ref=1 / me_range=32 / chroma_me=1 / trellis=2 / 8x8dct=1 / cqm=0 / deadzone=21,11 / fast_pskip=0 / chroma_qp_offset=-3 / threads=3 / lookahead_threads=1 / sliced_threads=0 / nr=0 / decimate=1 / interlaced=0 / bluray_compat=0 / constrained_intra=0 / bframes=3 / b_pyramid=2 / b_adapt=2 / b_bias=0 / direct=3 / weightb=1 / open_gop=0 / weightp=2 / keyint=250 / keyint_min=23 / scenecut=40 / intra_refresh=0 / rc_lookahead=50 / rc=2pass / mbtree=1 / bitrate=2975 / ratetol=1.0 / qcomp=0.60 / qpmin=0 / qpmax=69 / qpstep=4 / cplxblur=20.0 / qblur=0.5 / ip_ratio=1.40 / aq=1:1.00
Default : Yes
Forced : No
Audio
ID : 2
Format : AC-3
Format/Info : Audio Coding 3
Mode extension : CM (complete main)
Format settings, Endianness : Big
Codec ID : A_AC3
Duration : 1h 38mn
Bit rate mode : Constant
Bit rate : 192 Kbps
Channel(s) : 2 channels
Channel positions : Front: L R
Sampling rate : 48.0 KHz
Bit depth : 16 bits
Compression mode : Lossy
Stream size : 135 MiB (6%)
Language : Russian
Default : Yes
Forced : No
Text #1
ID : 3
Format : UTF-8
Codec ID : S_TEXT/UTF8
Codec ID/Info : UTF-8 Plain Text
Language : Russian
Default : Yes
Forced : No
Text #2
ID : 4
Format : UTF-8
Codec ID : S_TEXT/UTF8
Codec ID/Info : UTF-8 Plain Text
Language : English
Default : No
Forced : No
Menu
00:00:00.000 : en:Chapter 1
00:01:30.166 : en:Chapter 2
00:05:05.666 : en:Chapter 3
00:10:26.666 : en:Chapter 4
00:15:00.666 : en:Chapter 5
00:19:23.333 : en:Chapter 6
00:22:31.833 : en:Chapter 7
00:27:20.166 : en:Chapter 8
00:32:15.000 : en:Chapter 9
00:36:07.666 : en:Chapter 10
00:39:32.500 : en:Chapter 11
00:42:35.333 : en:Chapter 12
00:48:15.000 : en:Chapter 13
00:52:59.833 : en:Chapter 14
00:57:49.000 : en:Chapter 15
01:03:05.333 : en:Chapter 16
01:07:05.833 : en:Chapter 17
01:08:52.333 : en:Chapter 18
01:13:00.500 : en:Chapter 19
01:18:40.000 : en:Chapter 20
01:23:03.166 : en:Chapter 21
01:27:47.500 : en:Chapter 22
01:30:37.333 : en:Chapter 23
01:35:03.333 : en:Chapter 24
01:37:44.833 : en:Chapter 25



Скачать Запретная.планета.Forbidden.Planet.(Фред.М.Уилкокс.Fred.M.Wilcox).[1956.фантастика.HDDVDRip].[DVO].+.[Original.Eng].+.[Sub].(Rus.Eng).torrent без регистрации
Золото ЗОЛОТАЯ РАЗДАЧА! СКАЧАННОЕ НЕ ЗАСЧИТЫВАЕТСЯ! Золото
Дата: Зарегистрирован   [ Тип: внутренний ] Как тут cкачать?
MAGNET ссылка
MAGNET ссылка


Скачать .torrent

13 KB

Статус: проверено DHT
Скачан: торрент - 117 раз, раздача полностью - 20 раз
Размер: 2,44 GB
Оценка:  - (Голосов: 0)
Поблагодарили: 2
Поделиться ссылкой на эту раздачу с друзьями:
В контактеFacebookОдноклассникиTwitterLivejournalМой МирLiveinternet
 

 
Показать сообщения:    


Вы не можете начинать темы
Вы не можете отвечать на сообщения
Вы не можете редактировать свои сообщения
Вы не можете удалять свои сообщения
Вы не можете голосовать в опросах
Вы не можете прикреплять файлы к сообщениям
Вы можете скачивать файлы