Loading...
Error

Скачать Дьявольская игла / The Devils Needle (Честер Уитей / Chester Withey) [1916, драма, BDRip] [версия 1923 года] [Sub Rus] торрент без регистрации

 
Статистика раздачи
Размер:  1,09 GB   |    Скачан:  104 раза
Сидов:  1  [  0 KB/s  ]  
 
Автор Сообщение

leon030982

[] 

Дьявольская игла / The Devils Needle / версия 1923 года


Год выпуска: 1916
Страна: США
Жанр: драма
Продолжительность: 01:06:32
Перевод: Субтитры [marafon79]
Cубтитры: русские

Режиссер: Честер Уитей / Chester Withey

В ролях: Талли Маршалл, Норма Толмадж, Маргарит Марш, Ф.А. Тернер, Ховард Гайе, Джон Е. Бреннан, Пол Ле Бланк

Описание: "Наряду с проституцией и детским трудом, злоупотребление наркотиками было ещё одной проблемой социальных преобразователей, рассматриваемой и на сцене и на экране. Актер Талли Маршал, сыгравший главную роль в "Игле дьявола", сделал имя в театре, играя наркомана в "Городе" Клайда Фитча. Спродюсированной Дэвидом Гриффитом и снятой его протеже, дебютантом Честером Уитей, несколько бравурной "Дьявольской игле" не хватает достоверности (бегите от ужасов города, пашите землю и т.д.).
"Спасение в последний момент", снятое в трущобах Лос-Анжелеса, - верный, уже ставший традиционным, приём Гриффита - вызывал дополнительный интерес зрителей 1916 года. Но, фильм, который мы имеем сегодня, - версия 1923 года, скорректированная под ожидания зрителей 1920-х. Были изменены мотивации героев и их имена. Норма Толмадж стала к тому времени звездой Голливуда.
К тому же умер Уоллес Рид. Рид не снимался в этом фильме, но, широко освещавшаяся в печати, смерть популярного актёра напомнила о фильме, и его переиздали, подчеркнув роль Нормы Толмадж. Мы знаем, что Гриффита всегда волновали социальные проблемы, и Честер Уитей, возможно, просто делал, как ему велели. Но, у Три-Стоун были свои интересы, и в 1923 году их целью было подать фильм как современную сенсацию - откровенно эксплуатируя всё: и популярность привлекательной молодой актрисы, играющей в этом фильме, и ужасную смерть самого популярного актёра Голливуда".
(Ричард Козарски)


Доп. информация:
перевод: marafon79
редакция субтитров: 7ime 7raveller и VitoVitelly

Качество видео: BDRip
Исходник: KINO's BluRay (thanks to artcinema22)
Формат видео: AVI
Видео: Xvid, 704x528, 4:3, 17.98fps, 2 353 Kbps
Аудио: Dolby AC3, 48000Hz, 192kbps, stereo
Формат субтитров: softsub (SRT)
General
Complete name : The_Devils_Needle_1916_BDRip.avi
Format : AVI
Format/Info : Audio Video Interleave
File size : 1.09 GiB
Duration : 1h 6mn
Overall bit rate : 2 353 Kbps
Movie name : The Devil's Needle (1916)
Director : Chester Withey
Writing application : VirtualDubMod 1.5.10.2 (build 2542/release)
Writing library : VirtualDubMod build 2542/release
Copyright : Ripped from BluRay KINO
Video
ID : 0
Format : MPEG-4 Visual
Format profile : Advanced Simple@L5
Format settings, BVOP : 2
Format settings, QPel : No
Format settings, GMC : No warppoints
Format settings, Matrix : Default (MPEG)
Codec ID : XVID
Codec ID/Hint : XviD
Duration : 1h 6mn
Bit rate : 2 155 Kbps
Width : 704 pixels
Height : 528 pixels
Display aspect ratio : 4:3
Frame rate : 17.982 fps
Color space : YUV
Chroma subsampling : 4:2:0
Bit depth : 8 bits
Scan type : Progressive
Compression mode : Lossy
Bits/(Pixel*Frame) : 0.322
Stream size : 1.00 GiB (92%)
Writing library : XviD 64
Audio
ID : 1
Format : AC-3
Format/Info : Audio Coding 3
Mode extension : CM (complete main)
Format settings, Endianness : Big
Codec ID : 2000
Duration : 1h 6mn
Bit rate mode : Constant
Bit rate : 192 Kbps
Channel(s) : 2 channels
Channel positions : Front: L R
Sampling rate : 48.0 KHz
Bit depth : 16 bits
Compression mode : Lossy
Stream size : 90.9 MiB (8%)
Alignment : Split accross interleaves
Interleave, duration : 56 ms (1.01 video frame)
Interleave, preload duration : 500 ms
Title : Piano score by Rodney Sauer
[свернуть]



Скачать Дьявольская.игла.The.Devils.Needle.(Честер.Уитей.Chester.Withey).[1916.драма.BDRip].[версия.1923.года].[Sub.Rus].torrent без регистрации
Золото ЗОЛОТАЯ РАЗДАЧА! СКАЧАННОЕ НЕ ЗАСЧИТЫВАЕТСЯ! Золото
Дата: Зарегистрирован   [ Тип: внутренний ] Как тут cкачать?
MAGNET ссылка
MAGNET ссылка


Скачать .torrent

12 KB

Статус: проверено DHT
Скачан: торрент - 104 раз, раздача полностью - 4 раз
Размер: 1,09 GB
Оценка:  - (Голосов: 0)
Поблагодарили: 1
Поделиться ссылкой на эту раздачу с друзьями:
В контактеFacebookОдноклассникиTwitterLivejournalМой МирLiveinternet
 

 
Показать сообщения:    


Вы не можете начинать темы
Вы не можете отвечать на сообщения
Вы не можете редактировать свои сообщения
Вы не можете удалять свои сообщения
Вы не можете голосовать в опросах
Вы не можете прикреплять файлы к сообщениям
Вы можете скачивать файлы