Loading...
Error

Скачать Армагедон / Armaguedon (Ален Жессуа / Alain Jessua) [1977, Драма, Детектив, DVDRip] [DVO] + [Original Fre] торрент без регистрации

 
Статистика раздачи
Размер:  1,45 GB   |    Скачан:  118 раз
Сидов:  1  [  0 KB/s  ]  
 
Автор Сообщение

leon030982

[] 

Армагедон / Armaguedon

Год выпуска: 1977
Страна: Франция, Италия
Жанр: Драма, Детектив
Продолжительность: 01:29:33
Перевод: Профессиональный (двухголосый закадровый)
Cубтитры: нет
Оригинальная аудиодорожка: французский
Режиссер: Ален Жессуа / Alain Jessua
В ролях: Ален Делон /Alain Delon/, Жан Янн /Jean Yanne/, Ренато Сальватори /Renato Salvatori/, Мари Деа /Marie Déa/, Робер Дальбан /Robert Dalban/, Габриэль Каттан /Gabriel Cattand/, Мишель Кретон /Michel Creton/, Гай Сен-Жан /Guy Saint-Jean/, Алан Эдейр /Alan Adair/, Жорж Рикие /Georges Riquier
Описание: Скромный человечек Луи Каррьер получает наследство. Он невероятно доволен, как был бы доволен любой на его месте. Но Каррьер никогда не хотел быть просто богачом. Он мечтал стать мстителем.
Поэтому Каррьер разрабатывает план колоссальной мистификации: он посылает в полицию магнитофонные кассеты с угрозами на всех языках мира от имени некоего Армагедона.
Несчастный хочет прославиться, совершив неслыханное убийство. И единственным, кто понимает, как остановить Каррьера, оказывается доктор Мишель Амброз.
Автор рипа: MECHANICAL ENGINEER


Исходник: DVD-9
Качество видео: DVDRip
Формат видео: AVI
Видео: 720x416 (1.73:1), 25 fps, XviD build 50 ~1917 kbps avg, 0.26 bit/pixel
Аудио: 48 kHz, AC3 Dolby Digital, 2/0 (L,R) ch, ~192.00 kbps avg
Аудио 2: 48 kHz, AC3 Dolby Digital, 2/0 (L,R) ch, ~192.00 kbps avg
Format : AVI
Format/Info : Audio Video Interleave
File size : 1.45 GiB
Duration : 1h 29mn
Overall bit rate : 2 317 Kbps
Movie name : Армагедон / Armaguedon (1977)
Director : MECHANICAL ENGINEER (DVD-9)
Writing application : VirtualDubMod 1.5.10.3 | www.virtualdub-fr.org || (build 2550/release)
Writing library : VirtualDubMod build 2550/release
Comment : 22.01.10
Video
ID : 0
Format : MPEG-4 Visual
Format profile : Advanced Simple@L5
Format settings, BVOP : Yes
Format settings, QPel : No
Format settings, GMC : No warppoints
Format settings, Matrix : Custom
Codec ID : XVID
Codec ID/Hint : XviD
Duration : 1h 29mn
Bit rate : 1 918 Kbps
Width : 720 pixels
Height : 416 pixels
Display aspect ratio : 16:9
Frame rate : 25.000 fps
Color space : YUV
Chroma subsampling : 4:2:0
Bit depth : 8 bits
Scan type : Progressive
Bits/(Pixel*Frame) : 0.256
Stream size : 1.20 GiB (83%)
Writing library : XviD 1.2.1 (UTC 2008-12-04)
Audio #1
ID : 1
Format : AC-3
Format/Info : Audio Coding 3
Mode extension : CM (complete main)
Codec ID : 2000
Duration : 1h 29mn
Bit rate mode : Constant
Bit rate : 192 Kbps
Channel(s) : 2 channels
Channel positions : Front: L R
Sampling rate : 48.0 KHz
Bit depth : 16 bits
Stream size : 123 MiB (8%)
Alignment : Split accross interleaves
Interleave, duration : 40 ms (1.00 video frame)
Interleave, preload duration : 500 ms
Audio #2
ID : 2
Format : AC-3
Format/Info : Audio Coding 3
Mode extension : CM (complete main)
Codec ID : 2000
Duration : 1h 29mn
Bit rate mode : Constant
Bit rate : 192 Kbps
Channel(s) : 2 channels
Channel positions : Front: L R
Sampling rate : 48.0 KHz
Bit depth : 16 bits
Stream size : 123 MiB (8%)
Alignment : Split accross interleaves
Interleave, duration : 40 ms (1.00 video frame)
Interleave, preload duration : 500 ms



Скачать Армагедон.Armaguedon.(Ален.Жессуа.Alain.Jessua).[1977.Драма.Детектив.DVDRip].[DVO].+.[Original.Fre].torrent без регистрации
Золото ЗОЛОТАЯ РАЗДАЧА! СКАЧАННОЕ НЕ ЗАСЧИТЫВАЕТСЯ! Золото
Дата: Зарегистрирован   [ Тип: внутренний ] Как тут cкачать?
MAGNET ссылка
MAGNET ссылка


Скачать .torrent

15 KB

Статус: проверено DHT
Скачан: торрент - 118 раз, раздача полностью - 23 раз
Размер: 1,45 GB
Оценка:  - (Голосов: 0)
Поблагодарили: 1
Поделиться ссылкой на эту раздачу с друзьями:
В контактеFacebookОдноклассникиTwitterLivejournalМой МирLiveinternet
 

 
Показать сообщения:    


Вы не можете начинать темы
Вы не можете отвечать на сообщения
Вы не можете редактировать свои сообщения
Вы не можете удалять свои сообщения
Вы не можете голосовать в опросах
Вы не можете прикреплять файлы к сообщениям
Вы можете скачивать файлы