Loading...
Error

Скачать Неоспоримый 2 / Undisputed II: Last Man Standing (Айзек Флорентайн) [2006, боевик, драма, криминал, спорт, HDRip] [MVO] торрент без регистрации

 
Статистика раздачи
Размер:  745 MB   |    Скачан:  256 раз

Полного источника не было: 25 минут

 
Автор Сообщение

Marsianka

[] 

Информация о фильме
Название: Неоспоримый 2
Оригинальное название: Undisputed II: Last Man Standing
Год выхода: 2006
Жанр: боевик, драма, криминал, спорт
Режиссер: Айзек Флорентайн / Isaac Florentine
В ролях: Майкл Джей Уайт, Скотт Эдкинс, Бен Кросс, Эли Данкер, Марк Иванир, Кен Лернер, Дэйзи Лэнг, Сильвио Шимач

О фильме:
Бывший чемпион мира по боксу во время визита в Россию случайно попадает в криминальную разборку, связанную с высшими правительственными чинами и против него фабрикуется ложное дело. Дорога домой будет долгой и трудной, проходящей через суровую российскую тюрьму



Страна: США
Продолжительность: 01:37:36
Перевод: Профессиональный (многоголосый закадровый)
Файл
Кодек: XviD
Качество: HDRip
Видео: 656x352 (1.864), 23.976 fps, 930 Kbps, 0.168 Bits/(Pixel*Frame)
Звук: MP3, 48 KHz, 128 Kbps, 2 channels

Семпл
General
Complete name : D:Neosporimyj.2.2006.HDRip.XviD.745mb.avi
Format : AVI
Format/Info : Audio Video Interleave
File size : 745 MiB
Duration : 1h 37mn
Overall bit rate : 1 067 Kbps
Writing application : VirtualDubMod 1.5.10.2 (build 2540/release)
Writing library : VirtualDubMod build 2540/release

Video
ID : 0
Format : MPEG-4 Visual
Format profile : Advanced Simple@L5
Format settings, BVOP : 1
Format settings, QPel : No
Format settings, GMC : No warppoints
Format settings, Matrix : Custom
Codec ID : XVID
Codec ID/Hint : XviD
Duration : 1h 37mn
Bit rate : 930 Kbps
Width : 656 pixels
Height : 352 pixels
Display aspect ratio : 1.864
Frame rate : 23.976 fps
Color space : YUV
Chroma subsampling : 4:2:0
Bit depth : 8 bits
Scan type : Progressive
Compression mode : Lossy
Bits/(Pixel*Frame) : 0.168
Stream size : 649 MiB (87%)
Writing library : XviD 1.2.1 (UTC 2008-12-04)

Audio
ID : 1
Format : MPEG Audio
Format version : Version 1
Format profile : Layer 3
Codec ID : 55
Codec ID/Hint : MP3
Duration : 1h 37mn
Bit rate mode : Constant
Bit rate : 128 Kbps
Channel(s) : 2 channels
Sampling rate : 48.0 KHz
Compression mode : Lossy
Stream size : 89.3 MiB (12%)
Alignment : Aligned on interleaves
Interleave, duration : 42 ms (1.00 video frame)
Interleave, preload duration : 504 ms
Writing library : LAME3.98r
Encoding settings : -m s -V 4 -q 2 -lowpass 17 -b 128











Скачать Неоспоримый.2.Undisputed.II.Last.Man.Standing.(Айзек.Флорентайн).[2006.боевик.драма.криминал.спорт.HDRip].[MVO].torrent без регистрации
Золото ЗОЛОТАЯ РАЗДАЧА! СКАЧАННОЕ НЕ ЗАСЧИТЫВАЕТСЯ! Золото
Дата: Зарегистрирован   [ Тип: внутренний ] Как тут cкачать?
MAGNET ссылка
MAGNET ссылка


Скачать .torrent

15 KB

Статус: проверено DHT
Скачан: торрент - 256 раз, раздача полностью - 198 раз
Размер: 745 MB
Оценка:  - (Голосов: 0)
Поблагодарили: 0
Поделиться ссылкой на эту раздачу с друзьями:
В контактеFacebookОдноклассникиTwitterLivejournalМой МирLiveinternet
 

 
Показать сообщения:    


Вы не можете начинать темы
Вы не можете отвечать на сообщения
Вы не можете редактировать свои сообщения
Вы не можете удалять свои сообщения
Вы не можете голосовать в опросах
Вы не можете прикреплять файлы к сообщениям
Вы можете скачивать файлы