Loading...
Error

Скачать Военные игры / WarGames (Джон Бэдэм) [1983, фантастика, триллер, BDRip-AVC] [MVO]+[Оригинал]+[Sub] торрент без регистрации

 
Статистика раздачи
Размер:  2,18 GB   |    Скачан:  119 раз
Сидов:  1  [  0 KB/s  ]  
 
Автор Сообщение

Marsianka

[] 

Военные игры / WarGames (1983) BDRip-AVC

Информация о фильме
Название: Военные игры
Оригинальное название: WarGames
Год выхода: 1983
Жанр: фантастика, триллер
Режиссер: Джон Бэдэм

В ролях: Мэттью Бродерик, Дэбни Коулмен, Джон Вуд, Элли Шиди, Бэрри Корбин, Уанин Клей, Кент Уильямс, Деннис Липском, Джо Дорси, Ирвинг Мецман, Майкл Инсайн

О фильме: Хакеру `повезло`: он вошел в компьютерную сеть Пентагона и стал играть в `войну`. Операторы военного ведомства, а вслед за ними и командование решили, что русские начинают Третью мировую войну, и стали готовить ответный удар. Осознав, ЧТО он натворил, юноша хочет прекратить игру, однако сделать это оказывается далеко не просто



Страна: США
Продолжительность: 01:52:42
Перевод: Профессиональный (многоголосый закадровый), Оригинал (Английский)

Файл
Кодек: x.264
Качество: BDRip-AVC
Видео: 1024x554 (16:9), 23.976 fps, 2192 kbps, 0.161 bit/pixel
Аудио #1: 48 kHz, AC3 5.1, 384.00 kbps (Русский)
Аудио #1: 48 kHz, AC3 2.0, 192.00 kbps (Английский)
Субтитры: Русские, Английские (SDH)

&
Общее
Уникальный идентификатор : 181656912876459656899390415711647475010 (0x88A9D94BB3B9E129841A7DE248A6A542)
Полное имя : D:WarGames.1983.BDRip-AVC.mkv
Формат : Matroska
Версия формата : Version 4 / Version 2
Размер файла : 2,18 Гбайт
Продолжительность : 1 ч. 52 м.
Общий поток : 2769 Кбит/сек
Название фильма : Военные игры / WarGames (1983) BDRip-AVC rip by Rulya74
Дата кодирования : UTC 2010-02-22 21:41:31
Программа кодирования : mkvmerge v5.9.0 ('On The Loose') built on Dec 9 2012 15:37:01
Библиотека кодирования : libebml v1.3.0 + libmatroska v1.4.0

Видео
Идентификатор : 1
Формат : AVC
Формат/Информация : Advanced Video Codec
Профиль формата : High@L4.1
Параметр CABAC формата : Да
Параметр ReFrames формата : 10 кадров
Идентификатор кодека : V_MPEG4/ISO/AVC
Продолжительность : 1 ч. 52 м.
Битрейт : 2192 Кбит/сек
Ширина : 1024 пикселя
Высота : 554 пикселя
Соотношение сторон : 16:9
Частота кадров : 23,976 кадра/сек
Цветовое пространство : YUV
Субдискретизация насыщенности : 4:2:0
Битовая глубина : 8 бит
Тип развёртки : Прогрессивная
Бит/(Пиксели*Кадры) : 0.161
Размер потока : 1,68 Гбайт (77%)
Библиотека кодирования : x264 core 129 r2230 1cffe9f
Настройки программы : cabac=1 / ref=10 / deblock=1:-3:-2 / analyse=0x3:0x133 / me=umh / subme=9 / psy=1 / psy_rd=1.16:0.00 / mixed_ref=1 / me_range=48 / chroma_me=1 / trellis=2 / 8x8dct=1 / cqm=0 / deadzone=21,11 / fast_pskip=0 / chroma_qp_offset=-2 / threads=6 / lookahead_threads=1 / sliced_threads=0 / nr=0 / decimate=1 / interlaced=0 / bluray_compat=0 / constrained_intra=0 / bframes=6 / b_pyramid=2 / b_adapt=1 / b_bias=0 / direct=3 / weightb=1 / open_gop=0 / weightp=2 / keyint=240 / keyint_min=22 / scenecut=40 / intra_refresh=0 / rc_lookahead=40 / rc=2pass / mbtree=1 / bitrate=2192 / ratetol=1.0 / qcomp=0.60 / qpmin=10 / qpmax=69 / qpstep=4 / cplxblur=20.0 / qblur=0.5 / ip_ratio=1.40 / aq=1:1.00
Default : Да
Forced : Нет

Аудио #1
Идентификатор : 2
Формат : AC-3
Формат/Информация : Audio Coding 3
Расширение режима : CM (complete main)
Идентификатор кодека : A_AC3
Продолжительность : 1 ч. 52 м.
Вид битрейта : Постоянный
Битрейт : 384 Кбит/сек
Каналы : 6 каналов
Расположение каналов : Front: L C R, Side: L R, LFE
Частота : 48,0 КГц
Битовая глубина : 16 бит
Метод сжатия : С потерями
Размер потока : 310 Мбайт (14%)
Заголовок : Профессиональный (многоголосый закадровый)
Язык : Russian
Default : Да
Forced : Нет

Аудио #2
Идентификатор : 3
Формат : AC-3
Формат/Информация : Audio Coding 3
Расширение режима : CM (complete main)
Идентификатор кодека : A_AC3
Продолжительность : 1 ч. 52 м.
Вид битрейта : Постоянный
Битрейт : 192 Кбит/сек
Каналы : 2 канала
Расположение каналов : Front: L R
Частота : 48,0 КГц
Битовая глубина : 16 бит
Метод сжатия : С потерями
Размер потока : 155 Мбайт (7%)
Заголовок : Оригинал
Язык : English
Default : Нет
Forced : Нет

Текст #1
Идентификатор : 4
Формат : UTF-8
Идентификатор кодека : S_TEXT/UTF8
Идентификатор кодека/Информация : UTF-8 Plain Text
Язык : Russian
Default : Да
Forced : Нет

Текст #2
Идентификатор : 5
Формат : UTF-8
Идентификатор кодека : S_TEXT/UTF8
Идентификатор кодека/Информация : UTF-8 Plain Text
Заголовок : SDH
Язык : English
Default : Нет
Forced : Нет

Меню
00:00:00.000 : :Chapter 01
00:06:25.885 : :Chapter 02
00:09:31.070 : :Chapter 03
00:12:10.813 : :Chapter 04
00:14:04.677 : :Chapter 05
00:17:32.009 : :Chapter 06
00:22:33.310 : :Chapter 07
00:23:20.357 : :Chapter 08
00:26:01.017 : :Chapter 09
00:30:57.438 : :Chapter 10
00:35:40.555 : :Chapter 11
00:41:29.028 : :Chapter 12
00:44:30.834 : :Chapter 13
00:46:30.579 : :Chapter 14
00:49:42.562 : :Chapter 15
00:51:01.224 : :Chapter 16
00:53:22.949 : :Chapter 17
00:56:02.609 : :Chapter 18
00:59:32.026 : :Chapter 19
01:03:12.580 : :Chapter 20
01:08:24.850 : :Chapter 21
01:15:30.025 : :Chapter 22
01:19:19.796 : :Chapter 23
01:21:17.038 : :Chapter 24
01:26:24.512 : :Chapter 25
01:30:04.899 : :Chapter 26
01:33:28.978 : :Chapter 27
01:38:56.013 : :Chapter 28
01:41:59.488 : :Chapter 29
01:44:05.238 : :Chapter 30
01:46:24.836 : :Chapter 31
01:49:38.655 : :Chapter 32
01:52:42.589 : :Chapter 33



Скачать Военные.игры.WarGames.(Джон.Бэдэм).[1983.фантастика.триллер.BDRip-AVC].[MVO]+[Оригинал]+[Sub].torrent без регистрации
Золото ЗОЛОТАЯ РАЗДАЧА! СКАЧАННОЕ НЕ ЗАСЧИТЫВАЕТСЯ! Золото
Дата: Зарегистрирован   [ Тип: внутренний ] Как тут cкачать?
MAGNET ссылка
MAGNET ссылка


Скачать .torrent

11 KB

Статус: проверено DHT
Скачан: торрент - 119 раз, раздача полностью - 17 раз
Размер: 2,18 GB
Оценка:  - (Голосов: 0)
Поблагодарили: 4
Поделиться ссылкой на эту раздачу с друзьями:
В контактеFacebookОдноклассникиTwitterLivejournalМой МирLiveinternet
 

 
Показать сообщения:    


Вы не можете начинать темы
Вы не можете отвечать на сообщения
Вы не можете редактировать свои сообщения
Вы не можете удалять свои сообщения
Вы не можете голосовать в опросах
Вы не можете прикреплять файлы к сообщениям
Вы можете скачивать файлы