Loading...
Error

Скачать Путешествие на дно моря / Voyage to the Bottom of the Sea (Ирвин Аллен) [1961, фантастика, приключения, DVDRip] [MVO] торрент без регистрации

 
Статистика раздачи
Размер:  745 MB   |    Скачан:  112 раз
Сидов:  1  [  0 KB/s  ]  
 
Автор Сообщение

МихаНЕзатор

[] 

Год выпуска: 1961
Страна: США
Жанр: фантастика, приключения
Продолжительность: 01:40:32
Перевод: Профессиональный (многоголосый, закадровый)
Оригинальная аудиодорожка: нет
Cубтитры: нет

Режиссер: Ирвин Аллен / Irwin Allen

В ролях: Уолтер Пиджон, Джоан Фонтейн, Барбара Иден, Петер Лорре, Роберт Стерлинг, Майкл Ансара, Фрэнки Авалон, Режис Туми, Джон Лител, Ховард МакНир...

Описание: Вся планета объята страшным пожаром, вызванным внезапным «сумасшествием» пояса радиации Ван Аллена. Мужественный адмирал Нельсон, командир атомной подводной лодки, придумывает хитроумный план спасения человечества.
Он направляет подлодку в район Марианской впадины, чтобы запустить на орбиту ракету «Полярис» и взорвать очумевший «пояс». Эта миссия настолько опасна, что экипаж корабля готов поднять бунт против командира.

Исходник: DVD9 R5
Тип релиза: DVDRip
Контейнер: AVI

Видео: 672x288 (2.35:1), 25.000 fps, XviD ~ 899 kbps avg, 0.186 bit/pixel
Аудио: 48 kHz, Dolby МР3 2.0 128 kbps, русский


Общее
Полное имя : Puteshestvie.na.dno.morya.1961.P.DVDRip.745MB_[Youtracker]_by_avproh.avi
Формат : AVI
Формат/Информация : Audio Video Interleave
Размер файла : 745 Мбайт
Продолжительность : 1 ч. 40 м.
Общий поток : 1036 Кбит/сек
Программа кодирования : VirtualDubMod 1.5.10.3 | www.virtualdub-fr.org || (build 2550/release)
Библиотека кодирования : VirtualDubMod build 2550/release

Видео
Идентификатор : 0
Формат : MPEG-4 Visual
Профиль формата : Advanced Simple@L5
Параметр BVOP формата : 1
Параметр QPel формата : Нет
Параметр GMC формата : Без точки перехода
Параметр матрицы формата : Выборочная
Идентификатор кодека : XVID
Идентификатор кодека/Подсказка : XviD
Продолжительность : 1 ч. 40 м.
Битрейт : 899 Кбит/сек
Ширина : 672 пикселя
Высота : 288 пикселей
Соотношение сторон : 2,35:1
Частота кадров : 25,000 кадров/сек
Цветовое пространство : YUV
Субдискретизация насыщенности : 4:2:0
Битовая глубина : 8 бит
Тип развёртки : Прогрессивная
Метод сжатия : С потерями
Бит/(Пиксели*Кадры) : 0.186
Размер потока : 646 Мбайт (87%)
Библиотека кодирования : XviD 65

Аудио
Идентификатор : 1
Формат : MPEG Audio
Версия формата : Version 1
Профиль формата : Layer 3
Идентификатор кодека : 55
Идентификатор кодека/Подсказка : MP3
Продолжительность : 1 ч. 40 м.
Вид битрейта : Постоянный
Битрейт : 128 Кбит/сек
Каналы : 2 канала
Частота : 48,0 КГц
Метод сжатия : С потерями
Размер потока : 92,0 Мбайт (12%)
Выравнивание : Соединение по промежуткам
Продолжительность промежутка : 40 мс. (1,00 видеокадр)
Время предзагрузки промежутка : 504 мс.



Скачать Путешествие.на.дно.моря.Voyage.to.the.Bottom.of.the.Sea.(Ирвин.Аллен).[1961.фантастика.приключения.DVDRip].[MVO].torrent без регистрации
Золото ЗОЛОТАЯ РАЗДАЧА! СКАЧАННОЕ НЕ ЗАСЧИТЫВАЕТСЯ! Золото
Дата: Зарегистрирован   [ Тип: внутренний ] Как тут cкачать?
MAGNET ссылка
MAGNET ссылка


Скачать .torrent

15 KB

Статус: проверено DHT
Скачан: торрент - 112 раз, раздача полностью - 5 раз
Размер: 745 MB
Оценка:  - (Голосов: 0)
Поблагодарили: 1
Поделиться ссылкой на эту раздачу с друзьями:
В контактеFacebookОдноклассникиTwitterLivejournalМой МирLiveinternet
 

 
Показать сообщения:    


Вы не можете начинать темы
Вы не можете отвечать на сообщения
Вы не можете редактировать свои сообщения
Вы не можете удалять свои сообщения
Вы не можете голосовать в опросах
Вы не можете прикреплять файлы к сообщениям
Вы можете скачивать файлы