Loading...
Error

Скачать Заткнись, когда говоришь! / Tais-toi quand tu parles! (Филипп Клэр / Philippe Clair) [1981, комедия, VHSRip] [AVO] (Леонид Володарский) торрент без регистрации

 
Статистика раздачи
Размер:  1,46 GB   |    Скачан:  183 раза
Сидов:  1  [  0 KB/s  ]  
 
Автор Сообщение

leon030982

[] 

Заткнись, когда говоришь! / Tais-toi quand tu parles!


Год выпуска: 1981
Страна: Франция, Италия
Жанр: комедия
Продолжительность: 01:26:46
Перевод: Авторский (одноголосный, закадровый) [Леонид Володарский]
Cубтитры: нет

Режиссер: Филипп Клэр / Philippe Clair

В ролях: Альдо Маччоне, Эдвиж Фенек, Жак Франсуа, Клеман Арари, Жак Ленуар

Описание: Джакомо - фанат Джеймса Бонда. В его квартире на стенах постеры любимого героя, на видео - всегда бондиана, и даже сны Джакомо видит бондовские с собой в главной роли. Однажды в его жизнь вторгаются два незнакомца со словами: "Джеймс, нужно закончить ту миссию в Тунисе..."

Сэмпл: http://www.sendspace.com/file/busk61
Качество видео: VHSRip
Формат видео:DVD-Video
Видео: MPEG-2, 720x576(4:3), 25fps, 2144kbps
Аудио: AC-3, 48kHz, 256kbps
F:\заткнись, когда говоришь\VTS_02_1.VOB
General
Complete name : F:\заткнись, когда говоришь\VTS_02_1.VOB
Format : MPEG-PS
File size : 1 016 MiB
Duration : 58mn 0s
Overall bit rate mode : Variable
Overall bit rate : 2 449 Kbps
Video #224
ID : 224 (0xE0)
Format : MPEG Video
Format version : Version 2
Format profile : Main@Main
Format settings, BVOP : Yes
Format settings, Matrix : Custom
Format settings, GOP : Variable
Duration : 58mn 0s
Bit rate mode : Variable
Bit rate : 2 144 Kbps
Maximum bit rate : 9 400 Kbps
Width : 720 pixels
Height : 576 pixels
Display aspect ratio : 4:3
Frame rate : 25.000 fps
Standard : PAL
Color space : YUV
Chroma subsampling : 4:2:0
Bit depth : 8 bits
Scan type : Interlaced
Scan order : Top Field First
Compression mode : Lossy
Bits/(Pixel*Frame) : 0.207
Stream size : 890 MiB (88%)
Color primaries : BT.601 PAL
Transfer characteristics : BT.470 System B, BT.470 System G
Matrix coefficients : BT.601
Audio #189-128
ID : 189 (0xBD)-128 (0x80)
Format : AC-3
Format/Info : Audio Coding 3
Mode extension : CM (complete main)
Format settings, Endianness : Big
Muxing mode : DVD-Video
Duration : 57mn 59s
Bit rate mode : Constant
Bit rate : 256 Kbps
Channel(s) : 2 channels
Channel positions : Front: L R
Sampling rate : 48.0 KHz
Bit depth : 16 bits
Compression mode : Lossy
Delay relative to video : -80ms
Stream size : 106 MiB (10%)
F:\заткнись, когда говоришь\VTS_02_2.VOB
General
Complete name : F:\заткнись, когда говоришь\VTS_02_2.VOB
Format : MPEG-PS
File size : 484 MiB
Duration : 28mn 46s
Overall bit rate mode : Variable
Overall bit rate : 2 352 Kbps
Video #224
ID : 224 (0xE0)
Format : MPEG Video
Format version : Version 2
Format profile : Main@Main
Format settings, BVOP : Yes
Format settings, Matrix : Custom
Format settings, GOP : Variable
Duration : 28mn 46s
Bit rate mode : Variable
Bit rate : 2 049 Kbps
Maximum bit rate : 9 400 Kbps
Width : 720 pixels
Height : 576 pixels
Display aspect ratio : 4:3
Frame rate : 25.000 fps
Standard : PAL
Color space : YUV
Chroma subsampling : 4:2:0
Bit depth : 8 bits
Scan type : Interlaced
Scan order : Top Field First
Compression mode : Lossy
Bits/(Pixel*Frame) : 0.198
Stream size : 422 MiB (87%)
Color primaries : BT.601 PAL
Transfer characteristics : BT.470 System B, BT.470 System G
Matrix coefficients : BT.601
Audio #189-128
ID : 189 (0xBD)-128 (0x80)
Format : AC-3
Format/Info : Audio Coding 3
Mode extension : CM (complete main)
Format settings, Endianness : Big
Muxing mode : DVD-Video
Duration : 28mn 46s
Bit rate mode : Constant
Bit rate : 256 Kbps
Channel(s) : 2 channels
Channel positions : Front: L R
Sampling rate : 48.0 KHz
Bit depth : 16 bits
Compression mode : Lossy
Delay relative to video : -448ms
Stream size : 52.7 MiB (11%)



Скачать Заткнись.когда.говоришь!.Tais-toi.quand.tu.parles!.(Филипп.Клэр.Philippe.Clair).[1981.комедия.VHSRip].[AVO].(Леонид.Володарский).torrent без регистрации
Золото ЗОЛОТАЯ РАЗДАЧА! СКАЧАННОЕ НЕ ЗАСЧИТЫВАЕТСЯ! Золото
Дата: Зарегистрирован   [ Тип: внутренний ] Как тут cкачать?
MAGNET ссылка
MAGNET ссылка


Скачать .torrent

15 KB

Статус: проверено DHT
Скачан: торрент - 183 раз, раздача полностью - 31 раз
Размер: 1,46 GB
Оценка:  5 (Голосов: 1)
Поблагодарили: 2
Поделиться ссылкой на эту раздачу с друзьями:
В контактеFacebookОдноклассникиTwitterLivejournalМой МирLiveinternet
 

 

leon030982

[] 

раритетный фильм
 
Показать сообщения:    


Вы не можете начинать темы
Вы не можете отвечать на сообщения
Вы не можете редактировать свои сообщения
Вы не можете удалять свои сообщения
Вы не можете голосовать в опросах
Вы не можете прикреплять файлы к сообщениям
Вы можете скачивать файлы