Loading...
Error

Скачать Новые центурионы /The New Centurions (Ричард Флейшер /Richard Fleischer) [1972 г., драма, криминал, DVDRip] [DUB] (Советский дубляж) + [DVO] (НТВ+) торрент без регистрации

 
Статистика раздачи
Размер:  1,51 GB   |    Скачан:  119 раз
Сидов:  1  [  0 KB/s  ]  
 
Автор Сообщение

leon030982

[] 

Новые центурионы /The New Centurions


Год выпуска: 1972
Страна: США, Chartoff-Winkler Productions
Жанр: Драма, криминал
Продолжительность: 01:43:03
Перевод 1: Профессиональный (полное дублирование, советский дубляж, дополненный озвучкой от НТВ+ в вырезанных местах.)
Перевод 2: двухголосный перевод [НТВ+]

Субтитры:Русские, Английские отдельным файлом
Оригинальная аудиодорожка: Английский

Режиссер: Режиссер: Ричард Флейшер /Richard Fleischer

В ролях: Килвински - Джордж С. Скотт /George C. Scott/ (Ф.Яворский)
Рой - Стэйси Кич /Stacy Keach/ (С.Малишевский)
Дороти - Джейн Александер /Jane Alexander/ (С.Светличная)
Гас - Скотт Уилсон /Scott Wilson/ (В.Гусев)
Лорри - Розалинд Кэш /Rosalind Cash/ (Л.Данилина)

Описание: Экранизация одноименного романа Джозефа Уэмбо.
Рой Фелер (Стейси Кич), как и многие выпускники полицейской академии, идеализирует службу в полиции, но когда он поступает на службу в полицейское управление Лос-Анджелеса, мифы начинают развеиваться один за другим. Работа полицейских в Лос-Анджелесе - это ежедневный подвиг, ежеминутная схватка со смертью, борьба со всеми мыслимыми и немыслимыми проблемами. Для того, чтобы выжить и победить в этой "войне на улицах", мало выучки и чистых помыслов. Адаптироваться к условиям работы Рою помогает опытный ветеран Килвински, готовящийся к выходу на пенсию после долгих лет службы в полиции, которого великолепно сыграл Джордж С. Скотт.


Качество: DVDRip
Формат: AVI
Видео кодек: H264
Аудио кодек: AC3
Видео: 720х308,25 fps, H264, 1564 Кбит\c
Аудио: Русский (AC3, 2 ch, 192 Кбит/с), [дубляж , дополненный озвучкой от НТВ]
Аудио 2: Русский (AC3, 2 ch, 192 Кбит/с), [двухголосый перевод НТВ+]
Аудио 3: Английский (AC3, 2 ch, 192 Кбит/с)
Общее
Полное имя : F:\Bittorrent\The.New.Centurions\The New Centurions.avi
Формат : AVI
Формат/Информация : Audio Video Interleave
Профиль формата : OpenDML
Размер файла : 1,51 Гбайт
Продолжительность : 1 ч. 43 м.
Режим общего битрейта : Переменный
Общий поток : 2100 Кбит/сек
Программа кодирования : Lavf51.12.1
Видео
Идентификатор : 0
Формат : AVC
Формат/Информация : Advanced Video Codec
Профиль формата : Baseline@L3.0
Параметр CABAC формата : Нет
Параметр ReFrames формата : 1 кадр
Параметр GOP формата : M=1, N=12
Идентификатор кодека : H264
Продолжительность : 1 ч. 43 м.
Вид битрейта : Переменный
Битрейт : 1564 Кбит/сек
Максимальный битрейт : 2250 Кбит/сек
Ширина : 720 пикселей
Высота : 308 пикселей
Соотношение сторон : 2,35:1
Частота кадров : 25,000 кадров/сек
Частота кадров в оригинале : 24,000 кадра/сек
Цветовое пространство : YUV
Субдискретизация насыщенности : 4:2:0
Битовая глубина : 8 бит
Тип развёртки : Прогрессивная
Бит/(Пиксели*Кадры) : 0.282
Размер потока : 1,13 Гбайт (74%)
Аудио #1
Идентификатор : 1
Формат : AC-3
Формат/Информация : Audio Coding 3
Расширение режима : CM (complete main)
Параметр Endianness формата : Big
Идентификатор кодека : 2000
Продолжительность : 1 ч. 43 м.
Вид битрейта : Постоянный
Битрейт : 192 Кбит/сек
Каналы : 2 канала
Расположение каналов : Front: L R
Частота : 44,1 КГц
Битовая глубина : 16 бит
Метод сжатия : С потерями
Размер потока : 142 Мбайт (9%)
Выравнивание : Соединение по промежуткам
Продолжительность промежутка : 35 мс. (0,87 видеокадр)
Время предзагрузки промежутка : 34 мс.
Аудио #2
Идентификатор : 2
Формат : AC-3
Формат/Информация : Audio Coding 3
Расширение режима : CM (complete main)
Параметр Endianness формата : Big
Идентификатор кодека : 2000
Продолжительность : 1 ч. 43 м.
Вид битрейта : Постоянный
Битрейт : 128 Кбит/сек
Каналы : 2 канала
Расположение каналов : Front: L R
Частота : 44,1 КГц
Битовая глубина : 16 бит
Метод сжатия : С потерями
Размер потока : 94,4 Мбайт (6%)
Выравнивание : Соединение по промежуткам
Продолжительность промежутка : 35 мс. (0,87 видеокадр)
Время предзагрузки промежутка : 34 мс.
Аудио #3
Идентификатор : 3
Формат : AC-3
Формат/Информация : Audio Coding 3
Расширение режима : CM (complete main)
Параметр Endianness формата : Big
Идентификатор кодека : 2000
Продолжительность : 1 ч. 43 м.
Вид битрейта : Постоянный
Битрейт : 192 Кбит/сек
Каналы : 2 канала
Расположение каналов : Front: L R
Частота : 44,1 КГц
Битовая глубина : 16 бит
Метод сжатия : С потерями
Размер потока : 142 Мбайт (9%)
Выравнивание : Соединение по промежуткам
Продолжительность промежутка : 35 мс. (0,87 видеокадр)
Время предзагрузки промежутка : 34 мс.



Скачать Новые.центурионы.The.New.Centurions.(Ричард.Флейшер.Richard.Fleischer).[1972.г.драма.криминал.DVDRip].[DUB].(Советский.дубляж).+.[DVO].(НТВ+).torrent без регистрации
Золото ЗОЛОТАЯ РАЗДАЧА! СКАЧАННОЕ НЕ ЗАСЧИТЫВАЕТСЯ! Золото
Дата: Зарегистрирован   [ Тип: внутренний ] Как тут cкачать?
MAGNET ссылка
MAGNET ссылка


Скачать .torrent

16 KB

Статус: проверено DHT
Скачан: торрент - 119 раз, раздача полностью - 4 раз
Размер: 1,51 GB
Оценка:  - (Голосов: 0)
Поблагодарили: 1
Поделиться ссылкой на эту раздачу с друзьями:
В контактеFacebookОдноклассникиTwitterLivejournalМой МирLiveinternet
 

 
Показать сообщения:    


Вы не можете начинать темы
Вы не можете отвечать на сообщения
Вы не можете редактировать свои сообщения
Вы не можете удалять свои сообщения
Вы не можете голосовать в опросах
Вы не можете прикреплять файлы к сообщениям
Вы можете скачивать файлы