Loading...
Error

/ Hostage ( / Florent Emilio Siri) [2005, , , , , BDRip] [Dub]

 
1,46 GB   |    :  133
1  [  0 KB/s  ]  
 

leon030982

[] 

/ Hostage

. ?
: 2005
: ,
: , , ,
: 1:53:12
1: ( )

2: ( ) [Tycoon-studio] { }
3: ( ) [. ] { }
4: ( ) [. ] { }
:
: / Florent Emilio Siri

: , , , , , , , -, , .
: , -, , . , . , , . , ,
: $52 000 000
: $34 639 939 | : + $43 304 786 = $77 944 725 | : $1 091 144
MPAA: R ( 17 !)

: BDRip
: AVI
: 704x400 (1.76:1), 23.976 fps, XviD build 73 ~1453 kbps avg, 0.22 bit/pixel
#1: 48 kHz, AC3 Dolby Digital, 3/2 (L,C,R,l,r) + LFE ch, ~384.00 kbps avg [Dub]
#2: 48 kHz, AC3 Dolby Digital, 3/2 (L,C,R,l,r) + LFE ch, ~384.00 kbps avg [Tycoon] { }
#3: 48 kHz, AC3 Dolby Digital, 3/2 (L,C,R,l,r) + LFE ch, ~384.00 kbps avg [] { }
#4: 48 kHz, AC3 Dolby Digital, 3/2 (L,C,R,l,r) + LFE ch, ~384.00 kbps avg [] { }
: 1495.98 Mb ( 1568653312 bytes ) DVD

:

General
Complete name : C:\Users\Downloads\Encode\Hostage.2005.1080i.BD-Remux.Rus.Ukr.Eng.HDCLUB\Zalozhnik.2005.BDRip.[R.G.AllFilms].avi
Format : AVI
Format/Info : Audio Video Interleave
File size : 1.46 GiB
Duration : 1h 53mn
Overall bit rate : 1 847 Kbps
Movie name : Hostage (2005) - BDRip by Juvelir
Writing application : VirtualDubMod 1.5.10.3 | www.virtualdub-fr.org || (build 2550/release)
Video
ID : 0
Format : MPEG-4 Visual
Format profile : Advanced Simple@L5
Format settings, BVOP : 1
Format settings, QPel : No
Format settings, GMC : No warppoints
Format settings, Matrix : Custom
Codec ID : XVID
Codec ID/Hint : XviD
Duration : 1h 53mn
Bit rate : 1 454 Kbps
Width : 704 pixels
Height : 400 pixels
Display aspect ratio : 16:9
Frame rate : 23.976 fps
Color space : YUV
Chroma subsampling : 4:2:0
Bit depth : 8 bits
Scan type : Progressive
Compression mode : Lossy
Bits/(Pixel*Frame) : 0.215
Stream size : 1.15 GiB (79%)
Writing library : XviD 73
Audio
ID : 1
Format : AC-3
Format/Info : Audio Coding 3
Mode extension : CM (complete main)
Format settings, Endianness : Big
Codec ID : 2000
Duration : 1h 53mn
Bit rate mode : Constant
Bit rate : 384 Kbps
Channel(s) : 6 channels
Channel positions : Front: L C R, Side: L R, LFE
Sampling rate : 48.0 KHz
Bit depth : 16 bits
Compression mode : Lossy
Stream size : 311 MiB (21%)
Alignment : Split accross interleaves
Interleave, duration : 42 ms (1.00 video frame)
Interleave, preload duration : 500 ms



.Hostage.(...Florent.Emilio.Siri).[2005.....BDRip].[Dub].torrent
  ! ! 
:   [ : ] c?
MAGNET
MAGNET


.torrent

30 KB

: DHT
: - 133 , - 11
: 1,46 GB
- (: 0)
: 1
:
 FacebookTwitterLivejournal Liveinternet
 

 
: