Loading...
Error

/ / / El sueño del mono loco / The Mad Monkey / Twisted Obsession ( / Fernando Trueba) [1989, , , DVDRip] [AVO] + [Original] (ENG)

 
1,48 GB   |    :  143
1  [  0 KB/s  ]  
 

leon030982

[] 

/ / / El sueño del mono loco / The Mad Monkey / Twisted Obsession
: 1989
: ,
: ,
: 01:43:30
: ( )
C:

: /Fernando Trueba/

: /Jeff Goldblum/, /Miranda Richardson/, /Anémone/, /Daniel Ceccaldi/, /Dexter Fletcher/, /Liza Walker/, /Jerome Natali/, /Asunción Balaguer/, /Arielle Dombasle/, /Micky Sébastian/

:
. , , , .

IMDB User Rating→: 5.4/10 (292 votes)
.Ru→: 5.548 (31 ) VHS. alenavova.: DVDRip
: AVI
: 720x304 (2.35:1), 25 fps, XviD ~1654 kbps, 0.302 bit/pixel
1 (RUS): DD 2.0, 48 kHz, 192 kbps | ( )
2 (ENG): DD 2.0, 48 kHz, 192 kbps
: multi-up→, ifolder→, webfile→

:

General
Complete name : El.sueno.del.mono.loco.1989.DVDRip.avi
Format : AVI
Format/Info : Audio Video Interleave
File size : 1.48 GiB
Duration : 1h 43mn
Overall bit rate : 2 052 Kbps
Writing application : VirtualDubMod 1.5.10.2 (build 2542/release)
Writing library : VirtualDubMod build 2542/release
Video
ID : 0
Format : MPEG-4 Visual
Format profile : Advanced Simple@L5
Format settings, BVOP : 2
Format settings, QPel : No
Format settings, GMC : No warppoints
Format settings, Matrix : Default (H.263)
Muxing mode : Packed bitstream
Codec ID : XVID
Codec ID/Hint : XviD
Duration : 1h 43mn
Bit rate : 1 654 Kbps
Width : 720 pixels
Height : 304 pixels
Display aspect ratio : 2.35:1
Frame rate : 25.000 fps
Color space : YUV
Chroma subsampling : 4:2:0
Bit depth : 8 bits
Scan type : Progressive
Compression mode : Lossy
Bits/(Pixel*Frame) : 0.302
Stream size : 1.20 GiB (81%)
Writing library : XviD 64
Audio #1
ID : 1
Format : AC-3
Format/Info : Audio Coding 3
Mode extension : CM (complete main)
Format settings, Endianness : Big
Codec ID : 2000
Duration : 1h 43mn
Bit rate mode : Constant
Bit rate : 192 Kbps
Channel(s) : 2 channels
Channel positions : Front: L R
Sampling rate : 48.0 KHz
Bit depth : 16 bits
Compression mode : Lossy
Stream size : 142 MiB (9%)
Alignment : Split accross interleaves
Interleave, duration : 40 ms (1.00 video frame)
Interleave, preload duration : 500 ms
Audio #2
ID : 2
Format : AC-3
Format/Info : Audio Coding 3
Mode extension : CM (complete main)
Format settings, Endianness : Big
Codec ID : 2000
Duration : 1h 43mn
Bit rate mode : Constant
Bit rate : 192 Kbps
Channel(s) : 2 channels
Channel positions : Front: L R
Sampling rate : 48.0 KHz
Bit depth : 16 bits
Compression mode : Lossy
Stream size : 142 MiB (9%)
Alignment : Split accross interleaves
Interleave, duration : 40 ms (1.00 video frame)
Interleave, preload duration : 500 ms
:




.......El.sueño.del.mono.loco.The.Mad.Monkey.Twisted.Obsession.(..Fernando.Trueba).[1989...DVDRip].[AVO].+.[Original].(ENG).torrent
  ! ! 
:   [ : ] c?
MAGNET
MAGNET


.torrent

15 KB

: DHT
: - 143 , - 45
: 1,48 GB
- (: 0)
: 2
:
 FacebookTwitterLivejournal Liveinternet
 

 
: