Loading...
Error

Скачать В поле зрения / Person of Interest (сезон 02) (Ричард Дж. Льюис, Дэвид Семел) [2012, драма, триллер, HDTVRip] [720р] [MVO (NewStudio)] торрент без регистрации

 
Статистика раздачи
Размер:  23,58 GB   |    Скачан:  182 раза
Сидов:  1  [  0 KB/s  ]  
 
Автор Сообщение

МихаНЕзатор

[] 

Название: Подозреваемый / В поле зрения
Оригинальное название: Person of Interest
Год выпуска: 2012
Страна: США
Жанр: Драма, Триллер
Продолжительность: 12 х ~ 00:45:00
Перевод: Профессиональный (многоголосый, закадровый) - NewStudio
Субтитры: Нет
Режиссер: Ричард Дж. Льюис, Дэвид Семел

В ролях: Джеймс Кэвизел, Майкл Эмерсон, Тараджи П. Хэнсон, Кевин Чэпмен, Такако Хэйвуд, Натали Зиа, Сьюзэн Миснер, Джеймс Хэнлон, Крис Чок, Уильям Сэдлер, Брайан ДАрси Джеймс, Куртеней Тейлор, Жермен Кроуфорд, Леон Эддисон Браун, Майкл Дрэйер, Грегори Лэй, Брюс МакВитти, Энтони Мангано

Описание: Предполагаемо погибший бывший агент ЦРУ Риз объединяется с таинственным миллионером чтобы предотвращать преступления. Подготовка Риза в проведении операций под прикрытием привлекает внимание миллионера Финча, гения-программиста, который изобрел программу, позволяющую предсказывать преступные склонности людей на базе анализа поведения. Используя последние достижения техники, эти двое часто преступают закон, используя навыки Риза и бесконечное богатство Финча, и останавливают преступников еще до совершения преступления. Действия Риза привлекают к себе внимание детектива Картер из отдела убийств и полицейского Фуско, которого Риз использует в своих целях. Риз и Финч понимают, что правильный человек с правильной информацией в нужное время и в нужном месте может изменить все.

Качество: HDTVRip 720р
Формат: МКV
Видео кодек: H.264
Аудио кодек: AC3
Видео: MPEG-4 AVC, ~ 3300 Кбит/с, 1280x720, 0.139 bit/pixel
Аудио rus: AC3, 48,0 КГц, 2 ch, 192 Кбит/с
Аудио eng: AC3, 48,0 КГц, 6 ch, 384 Кбит/с

Релиз от:

12.05.2013 г. торент обновлён, добавлена 22 серия, сезон полностью

01. Запасной вариант /The Contingency
02. Плохой код / Bad Code
03. Маскарад / Masquerade
04. Головорез / Triggerman
05. Против Lede / Bury the Lede
06. Верный путь / The High Road
07. Необходимо / Critical
08. Пока смерть не разлучит нас / Til Death
09. Наложенный платеж / C.O.D.
10. Витрина / Shadow Box
11. 2 Пи Р / 2 Pi R
12. Prisoner's Dilemma
13. Точный расчет / Dead Reckoning
15. / Booked Solid
16. Значимость / Relevance
17. Proteus
18. All In
19. Trojan Horse
20. In Extremis
21. Нулевой день / Zero Day
22. God Mode

Перевод: Наталия Проскурина
Редактор: Графт
Озвучка: Петр Иващенко (Гланц), Константин Погодаев, Елена Шульман
Работа со звуком: Koss
Рип видео: Koss
Постер: Vortex
Формат : Matroska
Размер файла : 1,14 Гбайт
Продолжительность : 43 м.
Общий поток : 3727 Кбит/сек
Дата кодирования : UTC 2012-12-01 20:38:47
Программа кодирования : mkvmerge v5.8.0 ('No Sleep / Pillow') built on Sep 2 2012 15:37:04
Библиотека кодирования : libebml v1.2.3 + libmatroska v1.3.0

Видео
Идентификатор : 1
Формат : AVC
Формат/Информация : Advanced Video Codec
Профиль формата : High@L4.1
Параметр CABAC формата : Да
Параметр ReFrames формата : 8 кадров
Идентификатор кодека : V_MPEG4/ISO/AVC
Продолжительность : 43 м.
Битрейт : 3077 Кбит/сек
Ширина : 1280 пикс.
Высота : 720 пикс.
Соотношение сторон : 16:9
Частота кадров : 23,976 кадр/сек
Цветовое пространство : YUV
Подвыборка цветности : 4:2:0
Битовая глубина : 8 бит
Тип развёртки : Прогрессивная
Бит/(Пиксели*Кадры) : 0.139
Размер потока : 962 Мбайт (83%)
Библиотека кодирования : x264 core 129 r2230 1cffe9f
Настройки программы : cabac=1 / ref=8 / deblock=1:-2:-2 / analyse=0x3:0x113 / me=umh / subme=9 / psy=1 / psy_rd=1.00:0.00 / mixed_ref=1 / me_range=24 / chroma_me=1 / trellis=1 / 8x8dct=1 / cqm=0 / deadzone=21,11 / fast_pskip=0 / chroma_qp_offset=-2 / threads=18 / lookahead_threads=3 / sliced_threads=0 / nr=0 / decimate=1 / interlaced=0 / bluray_compat=0 / constrained_intra=0 / bframes=5 / b_pyramid=2 / b_adapt=2 / b_bias=0 / direct=3 / weightb=1 / open_gop=0 / weightp=2 / keyint=250 / keyint_min=23 / scenecut=40 / intra_refresh=0 / rc_lookahead=50 / rc=crf / mbtree=1 / crf=18.0 / qcomp=0.60 / qpmin=0 / qpmax=69 / qpstep=4 / ip_ratio=1.40 / aq=1:1.00
Язык : English

Аудио #1
Идентификатор : 2
Формат : AC-3
Формат/Информация : Audio Coding 3
Расширение режима : CM (complete main)
Идентификатор кодека : A_AC3
Продолжительность : 43 м.
Вид битрейта : Постоянный
Битрейт : 192 Кбит/сек
Каналы : 2 канала
Расположение каналов : Front: L R
Частота : 48,0 КГц
Битовая глубина : 16 бит
Метод сжатия : С потерями
Размер потока : 60,0 Мбайт (5%)
Язык : Russian

Аудио #2
Идентификатор : 3
Формат : AC-3
Формат/Информация : Audio Coding 3
Расширение режима : CM (complete main)
Идентификатор кодека : A_AC3
Продолжительность : 43 м.
Вид битрейта : Постоянный
Битрейт : 384 Кбит/сек
Каналы : 6 каналов
Расположение каналов : Front: L C R, Side: L R, LFE
Частота : 48,0 КГц
Битовая глубина : 16 бит
Метод сжатия : С потерями
Задержка видео : 120 мс.
Размер потока : 120 Мбайт (10%)
Язык : English



Скачать В.поле.зрения.Person.of.Interest.(сезон.02).(Ричард.Дж.Льюис.Дэвид.Семел).[2012.драма.триллер.HDTVRip].[720р].[MVO.(NewStudio)].torrent без регистрации
Золото ЗОЛОТАЯ РАЗДАЧА! СКАЧАННОЕ НЕ ЗАСЧИТЫВАЕТСЯ! Золото
Дата: Зарегистрирован   [ Тип: внутренний ] Как тут cкачать?
MAGNET ссылка
MAGNET ссылка


Скачать .torrent

63 KB

Статус: проверено DHT
Скачан: торрент - 182 раз, раздача полностью - 24 раз
Размер: 23,58 GB
Оценка:  5 (Голосов: 2)
Поблагодарили: 4
Поделиться ссылкой на эту раздачу с друзьями:
В контактеFacebookОдноклассникиTwitterLivejournalМой МирLiveinternet
 

 

МихаНЕзатор

[] 

Раздача обновлена.
 
Показать сообщения:    


Вы не можете начинать темы
Вы не можете отвечать на сообщения
Вы не можете редактировать свои сообщения
Вы не можете удалять свои сообщения
Вы не можете голосовать в опросах
Вы не можете прикреплять файлы к сообщениям
Вы можете скачивать файлы