Loading...
Error

Скачать На грани / The Edge (Ли Тамахори / Lee Tamahori) [1997 г., приключения, драма, HDRip] MVO "Первый канал", DVO "Премьер Видео" торрент без регистрации

 
Статистика раздачи
Размер:  1,47 GB   |    Скачан:  176 раз
Сидов:  1  [  0 KB/s  ]  
 
Автор Сообщение

Shara

[] 

На грани / The Edge
Год выпуска: 1997
Страна: США
Жанр: приключения, драма
Продолжительность: 01:57:33
Перевод: Профессиональный (многоголосый, двухголосый закадровые)
Субтитры: нет
Режиссер: Ли Тамахори
В ролях: Энтони Хопкинс, Алек Болдуин, Эль Макферсон, Хэролд Перрино, медведь Барт, Л. К. Джонс, Кэтлин Уилхойт, Марк Кили, Эли Габэй
Описание:
Пожилой миллиардер Чарльз Морс отправляется вместе со своей молоденькой женой-фотомоделью Микки на Аляску. Там супермодный фотограф Роберт Грин планирует сделать серию умопомрачительных снимков. На пути к отдаленному местечку самолет терпит крушение и падает в озеро. Пилот погибает, но остальным удается спастись. Ждать помощи неоткуда, и троице предстоит попытаться выжить в лесу, полном опасностей и диких зверей.
Доп.информация:
За спасибо
ТВ перевод был записан с Первого канала с эфира от 14.10.2011 - большое спасибо за помощь
Перевод "Премьер Видео" , огромная благодарность за ностальгию по кассетному переводу
Обе дорожки были отреставрированы.
General
Complete name : H:\Кино\The Edge 1997 720p BluRay DTS x264-CRiSC\The.Edge.1997.HDRip.avi
Format : AVI
Format/Info : Audio Video Interleave
File size : 1.47 GiB
Duration : 1h 57mn
Overall bit rate : 1 788 Kbps
Movie name : Edge
Director : Шкод@
Writing application : VirtualDubMod 1.5.10.2 (build 2542/release)
Writing library : VirtualDubMod build 2542/release
Copyright :
Comment : Groop All Films
Video
ID : 0
Format : MPEG-4 Visual
Format profile : Advanced Simple@L5
Format settings, BVOP : Yes
Format settings, QPel : No
Format settings, GMC : No warppoints
Format settings, Matrix : Default (MPEG)
Codec ID : XVID
Codec ID/Hint : XviD
Duration : 1h 57mn
Bit rate : 1 326 Kbps
Width : 720 pixels
Height : 304 pixels
Display aspect ratio : 2.35:1
Frame rate : 23.976 fps
Color space : YUV
Chroma subsampling : 4:2:0
Bit depth : 8 bits
Scan type : Progressive
Bits/(Pixel*Frame) : 0.253
Stream size : 1.09 GiB (74%)
Writing library : XviD 1.2.1 (UTC 2008-12-04)
Audio #1
ID : 1
Format : AC-3
Format/Info : Audio Coding 3
Mode extension : CM (complete main)
Codec ID : 2000
Duration : 1h 57mn
Bit rate mode : Constant
Bit rate : 224 Kbps
Channel(s) : 2 channels
Channel positions : Front: L R
Sampling rate : 48.0 KHz
Bit depth : 16 bits
Stream size : 188 MiB (13%)
Alignment : Split accross interleaves
Interleave, duration : 42 ms (1.00 video frame)
Interleave, preload duration : 500 ms
Audio #2
ID : 2
Format : AC-3
Format/Info : Audio Coding 3
Mode extension : CM (complete main)
Codec ID : 2000
Duration : 1h 57mn
Bit rate mode : Constant
Bit rate : 224 Kbps
Channel(s) : 2 channels
Channel positions : Front: L R
Sampling rate : 48.0 KHz
Bit depth : 16 bits
Stream size : 188 MiB (13%)
Alignment : Split accross interleaves
Interleave, duration : 42 ms (1.00 video frame)
Interleave, preload duration : 500 ms
[/spoiler]
Качество: HDRip
Формат: AVI
Видео кодек: XviD
Аудио кодек: AC3
Видео: 720x304 (2.37:1), 23.976 fps, XviD build 50 ~1325 kbps avg, 0.25 bit/pixel
Аудио:
1 - Dolby AC3; Rus; 48000Hz; 2ch; 224kbps [многоголосый закадровый] Первый канал, TVRip
2 - Dolby AC3; Rus; 48000Hz; 2ch; 224kbps [двухголосый закадровый] Премьер Видео, VHSRip



Скачать На.грани.The.Edge.(Ли.Тамахори.Lee.Tamahori).[1997.г.приключения.драма.HDRip].MVO."Первый.канал".DVO."Премьер.Видео".torrent без регистрации
Золото ЗОЛОТАЯ РАЗДАЧА! СКАЧАННОЕ НЕ ЗАСЧИТЫВАЕТСЯ! Золото
Дата: Зарегистрирован   [ Тип: внутренний ] Как тут cкачать?
MAGNET ссылка
MAGNET ссылка


Скачать .torrent

8 KB

Статус: проверено DHT
Скачан: торрент - 176 раз, раздача полностью - 275 раз
Размер: 1,47 GB
Оценка:  5 (Голосов: 2)
Поблагодарили: 5
Поделиться ссылкой на эту раздачу с друзьями:
В контактеFacebookОдноклассникиTwitterLivejournalМой МирLiveinternet
 

 
Показать сообщения:    


Вы не можете начинать темы
Вы не можете отвечать на сообщения
Вы не можете редактировать свои сообщения
Вы не можете удалять свои сообщения
Вы не можете голосовать в опросах
Вы не можете прикреплять файлы к сообщениям
Вы можете скачивать файлы