Loading...
Error

Скачать Блудливая Калифорния / Californication (сезон 06) (Том Капинос) [2013, комедия, драма, HDTVRip] [720p] [MVO (Jaskier)] торрент без регистрации

 
Статистика раздачи
Размер:  10,42 GB   |    Скачан:  177 раз
Сидов:  1  [  0 KB/s  ]  
 
Автор Сообщение

МихаНЕзатор

[] 

Название: Блудливая Калифорния
Оригинальное название: Californication
Год выпуска: 2013
Страна: США
Жанр: комедия, драма
Продолжительность: 01 х ~ 00:29:00
Перевод: Профессиональный (многоголосый закадровый) - студия Jaskier
Субтитры: Английские
Режиссер: Том Капинос

В ролях: Дэвид Духовны, Наташа МакЭлхоун, Мадлен Мартин, Эван Хэндлер, Памела Адлон, Мадлен Зима, Каллум Кейт Ренни, Рэйчел Майнер, Карла Галло, Ева Амурри

Описание: Приключени Хэнка Муди продолжаются! По сюжету, Хэнк будет работать на Бродвее, где будут ставить мюзикл, по его книге «Бог ненавидит всех нас». В нескольких эпизодах появится Тим Минчин. Ему досталась роль Аттикуса Фетча. Его ввели в сценарий специально для того, чтобы он выступил автором саундтрека для Бродвейского мюзикла Crazy Little Thing Called Love ( «Эта сумасшедшая штучка по имени любовь»), основанного на одноименном фильме по роману Хэнка Муди. Аттикус попытается уговорить Хэнка сочинить сценарий для мюзикла, обещая ему, что вместе они превратят его в рок-оперу. Также в этом сезоне нас ждут флешбеки.

Озвучено по заказу:
Перевод: Doctor Joker и MartinaG
Роли озвучивали: Сергей Пономарёв, Денис Строев, Михаил Кшиштовский, Вячеслав Козлов и Рина Гришина

Ненормативная лексика.



Качество: HDTVRip 720p
Формат: MKV
Видео: MPEG4 Video (H264) 1280x714 23.976fps ~2700Kbps
Аудио rus: Dolby AC3 48000Hz 5.1 384Kbps
Аудио eng: Dolby AC3 48000Hz 5.1 384Kbps

07.04.2013 г. торент обновлён, добавлена 12 серия, залито полностью!

01. The Unforgiven
02. Quitters
03. Dead Rock Stars
04. Hell Bent for Leather
05. Rock and a Hard Place
06. In the Clouds / В облаках
07. Scared Straight
08. Everybody's a fucking critic
09. Mad dogs & Englishmen
10. Blind Faith
11. The Abby
General
Unique ID : 221648098479021132591524128115253499188 (0xA6BFDEF9B4F2808D869A0DC575D6D534)
Complete name : D:Californication 6 season MVO Jaskier 720pCalifornication.S06E01.720p.HDTV.x264-Jaskier.Studio.mkv
Format : Matroska
Format version : Version 1
File size : 696 MiB
Duration : 29mn 2s
Overall bit rate : 3 351 Kbps
Encoded date : UTC 2013-01-14 17:07:23
Writing application : mkvmerge v2.3.0 ('Freak U') built on Sep 8 2008 18:32:16
Writing library : libebml v0.7.7 + libmatroska v0.8.1

Video
ID : 1
Format : AVC
Format/Info : Advanced Video Codec
Format profile : High@L4.1
Format settings, CABAC : Yes
Format settings, ReFrames : 5 frames
Codec ID : V_MPEG4/ISO/AVC
Duration : 29mn 2s
Bit rate : 2 452 Kbps
Width : 1 280 pixels
Height : 714 pixels
Display aspect ratio : 16:9
Frame rate mode : Constant
Frame rate : 23.976 fps
Color space : YUV
Chroma subsampling : 4:2:0
Bit depth : 8 bits
Scan type : Progressive
Bits/(Pixel*Frame) : 0.112
Stream size : 509 MiB (73%)
Writing library : x264 core 129 r2245 bc13772
Encoding settings : cabac=1 / ref=5 / deblock=1:-2:-2 / analyse=0x3:0x113 / me=umh / subme=8 / psy=1 / psy_rd=1.05:0.00 / mixed_ref=1 / me_range=16 / chroma_me=1 / trellis=1 / 8x8dct=1 / cqm=0 / deadzone=21,11 / fast_pskip=1 / chroma_qp_offset=-2 / threads=18 / lookahead_threads=3 / sliced_threads=0 / nr=0 / decimate=1 / interlaced=0 / bluray_compat=0 / constrained_intra=0 / bframes=3 / b_pyramid=2 / b_adapt=2 / b_bias=0 / direct=3 / weightb=1 / open_gop=0 / weightp=2 / keyint=250 / keyint_min=23 / scenecut=40 / intra_refresh=0 / rc_lookahead=50 / rc=crf / mbtree=1 / crf=19.0 / qcomp=0.60 / qpmin=0 / qpmax=69 / qpstep=4 / ip_ratio=1.40 / aq=1:0.70
Language : English
Default : Yes
Forced : No

Audio #1
ID : 2
Format : AC-3
Format/Info : Audio Coding 3
Mode extension : CM (complete main)
Format settings, Endianness : Big
Codec ID : A_AC3
Duration : 29mn 2s
Bit rate mode : Constant
Bit rate : 448 Kbps
Channel(s) : 6 channels
Channel positions : Front: L C R, Side: L R, LFE
Sampling rate : 48.0 KHz
Bit depth : 16 bits
Compression mode : Lossy
Stream size : 93.1 MiB (13%)
Title : MVO Jaskier Studio (Good People)
Language : Russian
Default : Yes
Forced : No

Audio #2
ID : 3
Format : AC-3
Format/Info : Audio Coding 3
Mode extension : CM (complete main)
Format settings, Endianness : Big
Codec ID : A_AC3
Duration : 29mn 2s
Bit rate mode : Constant
Bit rate : 384 Kbps
Channel(s) : 6 channels
Channel positions : Front: L C R, Side: L R, LFE
Sampling rate : 48.0 KHz
Bit depth : 16 bits
Compression mode : Lossy
Stream size : 79.8 MiB (11%)
Title : Original
Language : English
Default : No
Forced : No

Text
ID : 4
Format : UTF-8
Codec ID : S_TEXT/UTF8
Codec ID/Info : UTF-8 Plain Text
Title : English
Language : English
Default : Yes
Forced : No



Скачать Блудливая.Калифорния.Californication.(сезон.06).(Том.Капинос).[2013.комедия.драма.HDTVRip].[720p].[MVO.(Jaskier)].torrent без регистрации
Золото ЗОЛОТАЯ РАЗДАЧА! СКАЧАННОЕ НЕ ЗАСЧИТЫВАЕТСЯ! Золото
Дата: Зарегистрирован   [ Тип: внутренний ] Как тут cкачать?
MAGNET ссылка
MAGNET ссылка


Скачать .torrent

28 KB

Статус: проверено DHT
Скачан: торрент - 177 раз, раздача полностью - 6 раз
Размер: 10,42 GB
Оценка:  - (Голосов: 0)
Поблагодарили: 0
Поделиться ссылкой на эту раздачу с друзьями:
В контактеFacebookОдноклассникиTwitterLivejournalМой МирLiveinternet
 

 
Показать сообщения:    


Вы не можете начинать темы
Вы не можете отвечать на сообщения
Вы не можете редактировать свои сообщения
Вы не можете удалять свои сообщения
Вы не можете голосовать в опросах
Вы не можете прикреплять файлы к сообщениям
Вы можете скачивать файлы