Loading...
Error

Скачать Молодая мамаша / Pramface (сезон 01) (Дэн Зефф) [2012, комедия, HDTVRip] [MVO (ViruseProject)] торрент без регистрации

 
Статистика раздачи
Размер:  1,35 GB   |    Скачан:  125 раз
Сидов:  1  [  0 KB/s  ]  
 
Автор Сообщение

МихаНЕзатор

[] 

Информация о фильме
Название: Молодая мамаша
Оригинальное название: Pramface
Год выхода: 2012
Жанр: комедия
Режиссер: Дэн Зефф

В ролях: Шон Верей, Скарлет Джонсон, Ясмин Пейдж, Бен Кромптон, Брона Галлахер, Ангус Дейтон, Анна Чэнселлор, Дилан Эдвардс, Эмер Кенни, Карл Теобалд и др.

О фильме:
Подростки Джейми и Майк сдали все весенние экзамены и решили оторваться по полной на летних каникулах. А отрыв заключался в потере девственности, и тогда они решают пробраться на вечеринку к старшеклассникам, тем, кому уже по 18+. В общем, Джейми по чисто "пьяной" случайности удается таки совершить затеянное. И все было бы замечательно, если бы та девушка не залетела. И тут все началось...

Страна: Великобритания
Студия: BBC Three
Продолжительность: 00:28:00
Перевод: Любительский (многоголосый закадровый) ViruseProject

Файл
Кодек: XviD
Качество: HDTVRip
Видео: 704x400 (1.76:1), 25 fps, XviD build 50 ~977 kbps avg, 0.14 bit/pixel
Звук: 48 kHz, MPEG Layer 3, 2 ch, ~128.00 kbps avg
Субтитры: нет



Релиз от: ViruseProject

19.01.2013 г. торент обновлён, добавлена 6-я серия, золито полностью!

Solncekleshka (Татьяна Романовская)
marviha (Марина Видякина)
Lalusha (Алла Блаер)
48 kbps (Сергей Павловский )
Pro-Snip (Дмитрий Иванов )
IgVin (Игорь Головин)

Перевод и монтаж: Solncekleshka (Татьяна Романовская)
Сведение звука: viruse (Виталий Емельянов)
Общее
Полное имя : C:UsersAmberDesktopPramface.S01.ViruseProjectPramface.S01E01.ViruseProject.avi
Формат : AVI
Формат/Информация : Audio Video Interleave
Размер файла : 229 Мбайт
Продолжительность : 28 м.
Общий поток : 1115 Кбит/сек
Программа кодирования : VirtualDubMod 1.5.10.2 (build 2540/release)
Библиотека кодирования : VirtualDubMod build 2540/release

Видео
Идентификатор : 0
Формат : MPEG-4 Visual
Профиль формата : Advanced Simple@L5
Параметр BVOP формата : 1
Параметр QPel формата : Нет
Параметр GMC формата : Без точки перехода
Параметр матрицы формата : Default (MPEG)
Идентификатор кодека : XVID
Идентификатор кодека/Подсказка : XviD
Продолжительность : 28 м.
Битрейт : 977 Кбит/сек
Ширина : 704 пикселя
Высота : 400 пикселей
Соотношение сторон : 16:9
Частота кадров : 25,000 кадров/сек
Цветовое пространство : YUV
Субдискретизация насыщенности : 4:2:0
Битовая глубина : 8 бит
Тип развёртки : Прогрессивная
Метод сжатия : С потерями
Бит/(Пиксели*Кадры) : 0.139
Размер потока : 200 Мбайт (88%)
Библиотека кодирования : XviD 1.2.1 (UTC 2008-12-04)

Аудио
Идентификатор : 1
Формат : MPEG Audio
Версия формата : Version 1
Профиль формата : Layer 3
Идентификатор кодека : 55
Идентификатор кодека/Подсказка : MP3
Продолжительность : 28 м.
Вид битрейта : Постоянный
Битрейт : 128 Кбит/сек
Каналы : 2 канала
Частота : 48,0 КГц
Метод сжатия : С потерями
Размер потока : 26,3 Мбайт (11%)
Выравнивание : Соединение по промежуткам
Продолжительность промежутка : 40 мс. (1,00 видеокадр)
Время предзагрузки промежутка : 504 мс.

Общее
Полное имя : C:UsersAmberDesktopPramface.S01.ViruseProjectPramface.S01E02.ViruseProject.avi
Формат : AVI
Формат/Информация : Audio Video Interleave
Размер файла : 235 Мбайт
Продолжительность : 28 м.
Общий поток : 1162 Кбит/сек

Видео
Идентификатор : 0
Формат : MPEG-4 Visual
Профиль формата : Advanced Simple@L5
Параметр BVOP формата : 1
Параметр QPel формата : Нет
Параметр GMC формата : Без точки перехода
Параметр матрицы формата : Default (MPEG)
Идентификатор кодека : XVID
Идентификатор кодека/Подсказка : XviD
Продолжительность : 28 м.
Битрейт : 1025 Кбит/сек
Ширина : 704 пикселя
Высота : 400 пикселей
Соотношение сторон : 16:9
Частота кадров : 25,000 кадров/сек
Цветовое пространство : YUV
Субдискретизация насыщенности : 4:2:0
Битовая глубина : 8 бит
Тип развёртки : Прогрессивная
Метод сжатия : С потерями
Бит/(Пиксели*Кадры) : 0.146
Размер потока : 207 Мбайт (88%)
Библиотека кодирования : XviD 1.2.1 (UTC 2008-12-04)

Аудио
Идентификатор : 1
Формат : MPEG Audio
Версия формата : Version 1
Профиль формата : Layer 3
Идентификатор кодека : 55
Идентификатор кодека/Подсказка : MP3
Продолжительность : 28 м.
Продолжительность оригинала : 28 м.
Вид битрейта : Постоянный
Битрейт : 128 Кбит/сек
Каналы : 2 канала
Частота : 48,0 КГц
Метод сжатия : С потерями
Размер потока : 25,8 Мбайт (11%)
Выравнивание : Соединение по промежуткам
Продолжительность промежутка : 40 мс. (1,00 видеокадр)
Библиотека кодирования : LAME3.98r
Настройки программы : -m s -V 4 -q 2 -lowpass 17 -b 128

Общее
Полное имя : C:UsersAmberDesktopPramface.S01.ViruseProjectPramface.S01E03.ViruseProject.avi
Формат : AVI
Формат/Информация : Audio Video Interleave
Размер файла : 229 Мбайт
Продолжительность : 28 м.
Режим общего битрейта : Переменный
Общий поток : 1143 Кбит/сек

Видео
Идентификатор : 0
Формат : MPEG-4 Visual
Профиль формата : Advanced Simple@L5
Параметр BVOP формата : 1
Параметр QPel формата : Нет
Параметр GMC формата : Без точки перехода
Параметр матрицы формата : Default (MPEG)
Идентификатор кодека : XVID
Идентификатор кодека/Подсказка : XviD
Продолжительность : 28 м.
Битрейт : 1002 Кбит/сек
Ширина : 704 пикселя
Высота : 400 пикселей
Соотношение сторон : 16:9
Частота кадров : 25,000 кадров/сек
Цветовое пространство : YUV
Субдискретизация насыщенности : 4:2:0
Битовая глубина : 8 бит
Тип развёртки : Прогрессивная
Метод сжатия : С потерями
Бит/(Пиксели*Кадры) : 0.142
Размер потока : 201 Мбайт (88%)
Библиотека кодирования : XviD 1.2.1 (UTC 2008-12-04)

Аудио
Идентификатор : 1
Формат : MPEG Audio
Версия формата : Version 1
Профиль формата : Layer 3
Идентификатор кодека : 55
Идентификатор кодека/Подсказка : MP3
Продолжительность : 16 м.
Продолжительность оригинала : 30 м.
Вид битрейта : Переменный
Битрейт : 119 Кбит/сек
Каналы : 2 канала
Частота : 48,0 КГц
Метод сжатия : С потерями
Размер потока : 25,7 Мбайт (11%)
Выравнивание : Соединение по промежуткам
Продолжительность промежутка : 24 мс. (0,60 видеокадр)

Общее
Полное имя : C:UsersAmberDesktopPramface.S01.ViruseProjectPramface.S01E04.ViruseProject.avi
Формат : AVI
Формат/Информация : Audio Video Interleave
Размер файла : 229 Мбайт
Продолжительность : 28 м.
Общий поток : 1114 Кбит/сек

Видео
Идентификатор : 0
Формат : MPEG-4 Visual
Профиль формата : Advanced Simple@L5
Параметр BVOP формата : 1
Параметр QPel формата : Нет
Параметр GMC формата : Без точки перехода
Параметр матрицы формата : Default (MPEG)
Идентификатор кодека : XVID
Идентификатор кодека/Подсказка : XviD
Продолжительность : 28 м.
Битрейт : 976 Кбит/сек
Ширина : 720 пикселей
Высота : 400 пикселей
Соотношение сторон : 16:9
Частота кадров : 25,000 кадров/сек
Цветовое пространство : YUV
Субдискретизация насыщенности : 4:2:0
Битовая глубина : 8 бит
Тип развёртки : Прогрессивная
Метод сжатия : С потерями
Бит/(Пиксели*Кадры) : 0.136
Размер потока : 200 Мбайт (88%)
Библиотека кодирования : XviD 1.2.1 (UTC 2008-12-04)

Аудио
Идентификатор : 1
Формат : MPEG Audio
Версия формата : Version 1
Профиль формата : Layer 3
Идентификатор кодека : 55
Идентификатор кодека/Подсказка : MP3
Продолжительность : 28 м.
Продолжительность оригинала : 28 м.
Вид битрейта : Постоянный
Битрейт : 128 Кбит/сек
Каналы : 2 канала
Частота : 48,0 КГц
Метод сжатия : С потерями
Размер потока : 26,3 Мбайт (11%)
Выравнивание : Соединение по промежуткам
Продолжительность промежутка : 40 мс. (1,00 видеокадр)
Библиотека кодирования : LAME3.98r
Настройки программы : -m s -V 4 -q 2 -lowpass 17 -b 128

Общее
Полное имя : C:UsersAmberDesktopPramface.S01.ViruseProjectPramface.S01E05.ViruseProject.avi
Формат : AVI
Формат/Информация : Audio Video Interleave
Размер файла : 229 Мбайт
Продолжительность : 28 м.
Общий поток : 1114 Кбит/сек

Видео
Идентификатор : 0
Формат : MPEG-4 Visual
Профиль формата : Advanced Simple@L5
Параметр BVOP формата : 1
Параметр QPel формата : Нет
Параметр GMC формата : Без точки перехода
Параметр матрицы формата : Default (MPEG)
Идентификатор кодека : XVID
Идентификатор кодека/Подсказка : XviD
Продолжительность : 28 м.
Битрейт : 976 Кбит/сек
Ширина : 720 пикселей
Высота : 400 пикселей
Соотношение сторон : 16:9
Частота кадров : 25,000 кадров/сек
Цветовое пространство : YUV
Субдискретизация насыщенности : 4:2:0
Битовая глубина : 8 бит
Тип развёртки : Прогрессивная
Метод сжатия : С потерями
Бит/(Пиксели*Кадры) : 0.136
Размер потока : 200 Мбайт (88%)
Библиотека кодирования : XviD 1.2.1 (UTC 2008-12-04)

Аудио
Идентификатор : 1
Формат : MPEG Audio
Версия формата : Version 1
Профиль формата : Layer 3
Идентификатор кодека : 55
Идентификатор кодека/Подсказка : MP3
Продолжительность : 28 м.
Продолжительность оригинала : 28 м.
Вид битрейта : Постоянный
Битрейт : 128 Кбит/сек
Каналы : 2 канала
Частота : 48,0 КГц
Метод сжатия : С потерями
Размер потока : 26,3 Мбайт (11%)
Выравнивание : Соединение по промежуткам
Продолжительность промежутка : 40 мс. (1,00 видеокадр)
Библиотека кодирования : LAME3.98r
Настройки программы : -m s -V 4 -q 2 -lowpass 17 -b 128



Скачать Молодая.мамаша.Pramface.(сезон.01).(Дэн.Зефф).[2012.комедия.HDTVRip].[MVO.(ViruseProject)].torrent без регистрации
Золото ЗОЛОТАЯ РАЗДАЧА! СКАЧАННОЕ НЕ ЗАСЧИТЫВАЕТСЯ! Золото
Дата: Зарегистрирован   [ Тип: внутренний ] Как тут cкачать?
MAGNET ссылка
MAGNET ссылка


Скачать .torrent

14 KB

Статус: проверено DHT
Скачан: торрент - 125 раз, раздача полностью - 7 раз
Размер: 1,35 GB
Оценка:  - (Голосов: 0)
Поблагодарили: 1
Поделиться ссылкой на эту раздачу с друзьями:
В контактеFacebookОдноклассникиTwitterLivejournalМой МирLiveinternet
 

 
Показать сообщения:    


Вы не можете начинать темы
Вы не можете отвечать на сообщения
Вы не можете редактировать свои сообщения
Вы не можете удалять свои сообщения
Вы не можете голосовать в опросах
Вы не можете прикреплять файлы к сообщениям
Вы можете скачивать файлы