Loading...
Error

Скачать Генеральская дочь / The General's Daughter (Саймон Уэст) [1999, триллер, драма, криминал, детектив, военный, DVDRip-AVC] [MVO] торрент без регистрации

 
Статистика раздачи
Размер:  1,88 GB   |    Скачан:  106 раз
Сидов:  1  [  0 KB/s  ]  
 
Автор Сообщение

Marsianka

[] 

Генеральская дочь / The General's Daughter
«Разберись во лжи»
Русское название: Генеральская дочь
Оригинальное название: The General's Daughter
Год выпуска: 1999
Жанр: триллер, драма, криминал, детектив, военный
Режиссер: Саймон Уэст
Актеры: Джон Траволта, Мэдлин Стоу, Джеймс Кромуэлл, Тимоти Хаттон, Лесли Стефансон, Дэниэл фон Барген, Кларенс Уильямс III, Джеймс Вудс, Питер Вайретер, Марк Бун Джуниор
Описание фильма:
Убийство всегда чудовищно. Особенно если убита молодая и красивая женщина. Тем более, если эта женщина офицер вооруженных сил США и дочь прославленного генерала. В американской армии не любят «выносить сор из избы». Все внутренние проблемы решаются за хорошо закрытыми дверями. Поэтому расследование этого загадочного убийства поручили военному следователю Полу Бреннеру.
Бреннер опытный профессионал, на счету которого немало сложнейших дел. Во время вьетнамской войны он служил под началом отца убитой, поэтому раскрытие этого преступления для него вопрос чести. Но постепенно и без того уже темное дело начинает обрастать жуткими подробностями. Чтобы найти убийцу, Бреннер должен распутать клубок страшных тайн и скрытых ужасных страстей, блуждая по мрачному лабиринту жизни и смерти.



Производство: США, Германия
Продолжительность: 01:57:35
Перевод: Профессиональный (многоголосый, закадровый)
Субтитры: Отсутствуют
Качество видео: DVDRip-AVC
Видео: 720x436@1024x436, 1471 Кбит/сек
Аудио 1: Русский, AC3, 6 ch, 384 Кбит/с
Аудио 2: Английский, AC3, 6 ch, 448 Кбит/с
Формат : Matroska
Версия формата : Version 2
Размер файла : 1,88 Гбайт
Продолжительность : 1 ч. 57 м.
Общий поток : 2294 Кбит/сек
Дата кодирования : UTC 2012-06-17 07:50:04
Программа кодирования : mkvmerge v5.0.1 ('Es ist Sommer') built on Nov 6 2011 16:23:40
Библиотека кодирования : libebml v1.2.2 + libmatroska v1.3.0

Видео
Идентификатор : 1
Формат : AVC
Формат/Информация : Advanced Video Codec
Профиль формата : High@L4.1
Параметр CABAC формата : Да
Параметр ReFrames формата : 8 кадров
Режим смешивания : Header stripping
Идентификатор кодека : V_MPEG4/ISO/AVC
Продолжительность : 1 ч. 57 м.
Битрейт : 1471 Кбит/сек
Ширина : 720 пикселей
Высота : 436 пикселей
Соотношение сторон : 2,35:1
Частота кадров : 25,000 кадров/сек
Цветовое пространство : YUV
Субдискретизация насыщенности : 4:2:0
Битовая глубина : 8 бит
Тип развёртки : Прогрессивная
Бит/(Пиксели*Кадры) : 0.187
Размер потока : 1,16 Гбайт (62%)
Библиотека кодирования : x264 core 119 r2106 07efeb4
Настройки программы : cabac=1 / ref=8 / deblock=1:0:0 / analyse=0x3:0x133 / me=umh / subme=10 / psy=1 / psy_rd=1.00:0.10 / mixed_ref=1 / me_range=32 / chroma_me=1 / trellis=2 / 8x8dct=1 / cqm=0 / deadzone=21,11 / fast_pskip=1 / chroma_qp_offset=-3 / threads=6 / sliced_threads=0 / nr=0 / decimate=1 / interlaced=0 / bluray_compat=0 / constrained_intra=0 / bframes=7 / b_pyramid=2 / b_adapt=2 / b_bias=0 / direct=3 / weightb=1 / open_gop=0 / weightp=2 / keyint=250 / keyint_min=25 / scenecut=40 / intra_refresh=0 / rc_lookahead=40 / rc=2pass / mbtree=1 / bitrate=1471 / ratetol=1.0 / qcomp=0.60 / qpmin=10 / qpmax=51 / qpstep=4 / cplxblur=20.0 / qblur=0.5 / ip_ratio=1.40 / aq=1:1.00
Default : Да
Forced : Нет

Аудио #1
Идентификатор : 2
Формат : AC-3
Формат/Информация : Audio Coding 3
Расширение режима : CM (complete main)
Параметр Endianness формата : Big
Режим смешивания : Header stripping
Идентификатор кодека : A_AC3
Продолжительность : 1 ч. 57 м.
Вид битрейта : Постоянный
Битрейт : 384 Кбит/сек
Каналы : 6 каналов
Расположение каналов : Front: L C R, Side: L R, LFE
Частота : 48,0 КГц
Битовая глубина : 16 бит
Метод сжатия : С потерями
Размер потока : 323 Мбайт (17%)
Default : Да
Forced : Нет

Аудио #2
Идентификатор : 3
Формат : AC-3
Формат/Информация : Audio Coding 3
Расширение режима : CM (complete main)
Параметр Endianness формата : Big
Режим смешивания : Header stripping
Идентификатор кодека : A_AC3
Продолжительность : 1 ч. 57 м.
Вид битрейта : Постоянный
Битрейт : 448 Кбит/сек
Каналы : 6 каналов
Расположение каналов : Front: L C R, Side: L R, LFE
Частота : 48,0 КГц
Битовая глубина : 16 бит
Метод сжатия : С потерями
Размер потока : 377 Мбайт (20%)
Default : Нет
Forced : Нет



Скачать Генеральская.дочь.The.General's.Daughter.(Саймон.Уэст).[1999.триллер.драма.криминал.детектив.военный.DVDRip-AVC].[MVO].torrent без регистрации
Золото ЗОЛОТАЯ РАЗДАЧА! СКАЧАННОЕ НЕ ЗАСЧИТЫВАЕТСЯ! Золото
Дата: Зарегистрирован   [ Тип: внутренний ] Как тут cкачать?
MAGNET ссылка
MAGNET ссылка


Скачать .torrent

19 KB

Статус: проверено DHT
Скачан: торрент - 106 раз, раздача полностью - 37 раз
Размер: 1,88 GB
Оценка:  - (Голосов: 0)
Поблагодарили: 0
Поделиться ссылкой на эту раздачу с друзьями:
В контактеFacebookОдноклассникиTwitterLivejournalМой МирLiveinternet
 

 
Показать сообщения:    


Вы не можете начинать темы
Вы не можете отвечать на сообщения
Вы не можете редактировать свои сообщения
Вы не можете удалять свои сообщения
Вы не можете голосовать в опросах
Вы не можете прикреплять файлы к сообщениям
Вы можете скачивать файлы