Loading...
Error

Скачать Белые люди не умеют прыгать / Баскетбол - игра для чёрных / White Men Can't Jump (Рон Шелтон) [1992, драма, комедия, спорт, BDRip-AVC] [MVO]+[AVO]+[Sub]] торрент без регистрации

 
Статистика раздачи
Размер:  4,07 GB   |    Скачан:  107 раз
Сидов:  1  [  0 KB/s  ]  
 
Автор Сообщение

Marsianka

[] 

Информация о фильме
Название: Белые люди не умеют прыгать / Баскетбол - игра для чёрных
Оригинальное название: White Men Can't Jump
Год выхода: 1992
Жанр: драма, комедия, спорт
Режиссер: Рон Шелтон
В ролях: Уэсли Снайпс, Вуди Харрельсон, Рози Перес, Тайра Феррелл, Силк Козарт, Кадим Хардисон, Эрнест Харден мл., Джон Маршалл Джонс, Маркус Джонсон, Дэвид Роберсон, Кевин Бентон, Найджел Мигель, Дуэйн Мартин, Билл Хендерсон, Сонни Кравер, Джон Хендрикс, Элой Касадос, Фрэнк Росси, Фриман Уильямс, Луис Прайс, Алекс Требек, Регги Леон, Сара Ставру, Рейнальдо Рей, Ланей Чэпман, Ирен Неттлз, Торри Уайтхед, Лиза Макдауэлл, Дэвид Максвелл, Дион Б. Винс, Билл Каплан, Ричард Джеймс Бэйкер, Эми Голден, Джанет Срубар, Зандра Хилл, Фред П. Грегори

О фильме:
Действие фильма переносит нас на раскаленный асфальт баскетбольных площадок Лос-Анджелеса. Идет игра игра на деньги. А там где деньги всегда найдется место парочке жуликов, готовых обмануть доверчивого лоха. Билли, шулер от баскетбола, беззастенчиво пользуется общепринятым мнением, что белый не может играть в баскетбол, не может прыгать. Все складывается отлично, до тех пор пока не приходит время расплачиваться с долгами, наделанными еще в университете. Нужно срочно собрать кругленькую сумму, а в одиночку это проблематично. К этой проблеме присоединяется еще одна, Сидней чернокожий мошенник. Звезда уличного баскетбола. Похититель женских сердец. Между двумя игроками завязывается нешуточная борьба за звание лучшего баскетболиста, ловеласа, самого удачливого кидалы. Борьба идет до тех пор, пока они не понимают, что в паре можно заработать гораздо больше денег, чем по одиночке.



Страна: США
Студия: 20th Century Fox Film Corporation
Продолжительность: 01:56:53
Перевод: Профессиональный (многоголосый закадровый), авторский (одноголосый закадровый)

Файл
Кодек: h.264
Качество: BDRip-AVC
Видео: MPEG-4 AVC, 3448 Кбит/с, 1024x554, 23.976 кадр/с
1: Русский (АС3, 6 ch, 384 Кбит/с) Профессиональный многоголосый
2: Русский (АС3, 6 ch, 384 Кбит/с) Авторский одноголосый [Юрий Живов]
3: Русский (АС3, 2 ch, 192 Кбит/с) Авторский одноголосый [Вартан Дохалов]
4: Украинский (АС3, 2 ch, 192 Кбит/с) Профессиональный многоголосый
5: Английский (АС3, 6 ch, 384 Кбит/с)

Субтитры: Русские, английские

Полное имя : Belie.ne.umeyut.prygatj.1992.x264.BDRip.(AVC).0ptimus.mkv
Формат : Matroska
Версия формата : Version 2
Размер файла : 4,07 Гбайт
Продолжительность : 1 ч. 56 м.
Общий поток : 4985 Кбит/сек
Название фильма : Белые не умеют прыгать (Баскетбол - игра для чёрных) / White Men Can't Jump [1992] -=BDRip (AVC) by 0ptimus=-
Дата кодирования : UTC 2013-01-14 08:36:06
Программа кодирования : mkvmerge v5.8.0 ('No Sleep / Pillow') built on Sep 2 2012 15:37:04
Библиотека кодирования : libebml v1.2.3 + libmatroska v1.3.0

Видео
Идентификатор : 1
Формат : AVC
Формат/Информация : Advanced Video Codec
Профиль формата : High@L4.1
Параметр CABAC формата : Да
Параметр ReFrames формата : 9 кадров
Идентификатор кодека : V_MPEG4/ISO/AVC
Продолжительность : 1 ч. 56 м.
Битрейт : 3448 Кбит/сек
Ширина : 1024 пикселя
Высота : 554 пикселя
Соотношение сторон : 1,85:1
Режим частоты кадров : Постоянный
Частота кадров : 23,976 кадра/сек
Цветовое пространство : YUV
Субдискретизация насыщенности : 4:2:0
Битовая глубина : 8 бит
Тип развёртки : Прогрессивная
Бит/(Пиксели*Кадры) : 0.254
Размер потока : 2,73 Гбайт (67%)
Библиотека кодирования : x264 core 129 r2230 1cffe9f
Настройки программы : cabac=1 / ref=9 / deblock=1:-3:-3 / analyse=0x3:0x113 / me=umh / subme=11 / psy=1 / psy_rd=1.00:0.20 / mixed_ref=1 / me_range=48 / chroma_me=1 / trellis=2 / 8x8dct=1 / cqm=0 / deadzone=21,11 / fast_pskip=0 / chroma_qp_offset=-3 / threads=4 / lookahead_threads=1 / sliced_threads=0 / nr=0 / decimate=0 / interlaced=0 / bluray_compat=0 / constrained_intra=0 / bframes=13 / b_pyramid=2 / b_adapt=2 / b_bias=0 / direct=3 / weightb=1 / open_gop=0 / weightp=2 / keyint=240 / keyint_min=23 / scenecut=40 / intra_refresh=0 / rc_lookahead=40 / rc=2pass / mbtree=0 / bitrate=3448 / ratetol=1.0 / qcomp=0.60 / qpmin=0 / qpmax=69 / qpstep=4 / cplxblur=20.0 / qblur=0.5 / vbv_maxrate=50000 / vbv_bufsize=50000 / nal_hrd=none / ip_ratio=1.40 / pb_ratio=1.30 / aq=1:1.00
Язык : English
Default : Да
Forced : Да

Аудио #1
Идентификатор : 2
Формат : AC-3
Формат/Информация : Audio Coding 3
Расширение режима : CM (complete main)
Параметр Endianness формата : Big
Идентификатор кодека : A_AC3
Продолжительность : 1 ч. 56 м.
Вид битрейта : Постоянный
Битрейт : 384 Кбит/сек
Каналы : 6 каналов
Расположение каналов : Front: L C R, Side: L R, LFE
Частота : 48,0 КГц
Битовая глубина : 16 бит
Метод сжатия : С потерями
Размер потока : 321 Мбайт (8%)
Заголовок : Многоголосый [R5]
Язык : Russian
Default : Да
Forced : Да

Аудио #2
Идентификатор : 3
Формат : AC-3
Формат/Информация : Audio Coding 3
Расширение режима : CM (complete main)
Параметр Endianness формата : Big
Идентификатор кодека : A_AC3
Продолжительность : 1 ч. 56 м.
Вид битрейта : Постоянный
Битрейт : 384 Кбит/сек
Каналы : 6 каналов
Расположение каналов : Front: L C R, Side: L R, LFE
Частота : 48,0 КГц
Битовая глубина : 16 бит
Метод сжатия : С потерями
Размер потока : 321 Мбайт (8%)
Заголовок : Авторский [Юрий Живов]
Язык : Russian
Default : Нет
Forced : Нет

Аудио #3
Идентификатор : 4
Формат : AC-3
Формат/Информация : Audio Coding 3
Расширение режима : CM (complete main)
Параметр Endianness формата : Big
Идентификатор кодека : A_AC3
Продолжительность : 1 ч. 56 м.
Вид битрейта : Постоянный
Битрейт : 192 Кбит/сек
Каналы : 2 канала
Расположение каналов : Front: L R
Частота : 48,0 КГц
Битовая глубина : 16 бит
Метод сжатия : С потерями
Размер потока : 160 Мбайт (4%)
Заголовок : Авторский [Вартан Дохалов]
Язык : Russian
Default : Нет
Forced : Нет

Аудио #4
Идентификатор : 5
Формат : AC-3
Формат/Информация : Audio Coding 3
Расширение режима : CM (complete main)
Параметр Endianness формата : Big
Идентификатор кодека : A_AC3
Продолжительность : 1 ч. 56 м.
Вид битрейта : Постоянный
Битрейт : 192 Кбит/сек
Каналы : 2 канала
Расположение каналов : Front: L R
Частота : 48,0 КГц
Битовая глубина : 16 бит
Метод сжатия : С потерями
Размер потока : 160 Мбайт (4%)
Заголовок : Многоголосый
Язык : Ukrainian
Default : Нет
Forced : Нет

Аудио #5
Идентификатор : 6
Формат : AC-3
Формат/Информация : Audio Coding 3
Расширение режима : CM (complete main)
Параметр Endianness формата : Big
Идентификатор кодека : A_AC3
Продолжительность : 1 ч. 56 м.
Вид битрейта : Постоянный
Битрейт : 384 Кбит/сек
Каналы : 6 каналов
Расположение каналов : Front: L C R, Side: L R, LFE
Частота : 48,0 КГц
Битовая глубина : 16 бит
Метод сжатия : С потерями
Размер потока : 321 Мбайт (8%)
Язык : English
Default : Нет
Forced : Нет

Текст #1
Идентификатор : 7
Формат : UTF-8
Идентификатор кодека : S_TEXT/UTF8
Идентификатор кодека/Информация : UTF-8 Plain Text
Язык : Russian
Default : Нет
Forced : Нет

Текст #2
Идентификатор : 8
Формат : UTF-8
Идентификатор кодека : S_TEXT/UTF8
Идентификатор кодека/Информация : UTF-8 Plain Text
Язык : English
Default : Нет
Forced : Нет

Меню
00:00:00.000 : :Main Titles
00:04:34.816 : :Talkin' Trash
00:09:00.123 : :Who's the Chump?
00:19:00.681 : :About Business
00:24:25.464 : :Hustlin'
00:31:06.865 : :Finding a Weakness
00:36:15.006 : :Love's Fool
00:43:21.224 : :The Almighty Dollar
00:50:48.212 : :Ethics
00:58:04.189 : :In the Zone
01:04:55.266 : :Accepting the Award
01:10:32.562 : :White Men Can't Jump
01:14:12.156 : :Win Some, Lose Some
01:23:14.072 : :A Cross To Bear
01:28:26.676 : :Jeopardy
01:33:12.212 : :Gloria's Song
01:36:36.082 : :Promises
01:42:31.270 : :Every Dog Has His Day
01:47:32.738 : :Sometimes You Lose...
01:52:41.964 : :End Titles

x264 [info]: frame I:1198 Avg QP:17.15 size: 80342
x264 [info]: frame P:36774 Avg QP:19.76 size: 32726
x264 [info]: frame B:130115 Avg QP:21.14 size: 13220
Релиз от: 0ptimus



Скачать Белые.люди.не.умеют.прыгать.Баскетбол.-.игра.для.чёрных.White.Men.Can't.Jump.(Рон.Шелтон).[1992.драма.комедия.спорт.BDRip-AVC].[MVO]+[AVO]+[Sub]].torrent без регистрации
Золото ЗОЛОТАЯ РАЗДАЧА! СКАЧАННОЕ НЕ ЗАСЧИТЫВАЕТСЯ! Золото
Дата: Зарегистрирован   [ Тип: внутренний ] Как тут cкачать?
MAGNET ссылка
MAGNET ссылка


Скачать .torrent

21 KB

Статус: проверено DHT
Скачан: торрент - 107 раз, раздача полностью - 28 раз
Размер: 4,07 GB
Оценка:  - (Голосов: 0)
Поблагодарили: 0
Поделиться ссылкой на эту раздачу с друзьями:
В контактеFacebookОдноклассникиTwitterLivejournalМой МирLiveinternet
 

 
Показать сообщения:    


Вы не можете начинать темы
Вы не можете отвечать на сообщения
Вы не можете редактировать свои сообщения
Вы не можете удалять свои сообщения
Вы не можете голосовать в опросах
Вы не можете прикреплять файлы к сообщениям
Вы можете скачивать файлы