Loading...
Error

Скачать Побег из Алькатраса / Escape from Alcatraz (1979) BDRip 2x[MVO]+[AVO (А.Михалев)] торрент без регистрации

 
Статистика раздачи
Размер:  2,19 GB   |    Скачан:  112 раз
Сидов:  1  [  0 KB/s  ]  
 
Автор Сообщение

МихаНЕзатор

[] 

Информация о фильме
Название: Побег из Алькатраса
Оригинальное название: Escape from Alcatraz
Год выхода: 1979
Жанр: Триллер, Драма, Криминал
Режиссер: Дон Сигел / Don Siegel

В ролях: Клинт Иствуд , Патрик МакГуэн , Робертс Блоссом , Джек Тибо , Фред Уорд , Пол Бенджамин , Ларри Хэнкин , Брюс М. Фишер , Фрэнк Ронцио , Фред Статмен , Дэвид Крайер , Мэдисон Арнольд

О фильме: Тюрьмы созданы для того, чтобы изолировать от прочего мира отдельных субъектов. Однако среди заключенных всегда находились смельчаки, способные совершить побег. Общество всегда лелеяло мечту о возведении совершенной тюрьмы, из которой невозможно было бы бежать. И такое заведение удалось построить на острове неподалеку от Сан - Франциско.
Тюрьма называлась «Алькатрас». Двадцать девять лет считалась она самой надежной тюрьмой США. В ней сидели знаменитые воры, мошенники и даже сам Аль Капоне. Но в один прекрасный день порог этой страшной тюрьмы переступил грабитель банков Фрэнк Моррис.
Он не пожелал отбывать в «гостеприимных» стенах назначенный судом срок и осуществил один из величайших побегов в истории криминалистики.




Страна: США
Продолжительность: 01:51:55
Перевод: Профессиональный (многоголосый, закадровый), Профессиональный (многоголосый, закадровый) НТВ, Авторский (одноголосый закадровый) А.Михалев

Файл
Кодек: Xvid
Качество: BDRip
Видео: 720x400, 23.976 fps, 1943 Kbps
Аудио 1: AC3, 6 ch, 48.0 kHz, 448.00 kbps.....Профессиональный (многоголосый, закадровый)
Аудио 2: AC3, 2 ch, 48.0 kHz, 192.00 kbps.....Профессиональный (многоголосый, закадровый)НТВ
Аудио 2: AC3, 2 ch, 48.0 kHz, 192.00 kbps.....Авторский (одноголосый закадровый) А.Михалев

Релиз от: Leon-masl
General
Complete name : Pobeg iz Alkatrasa.1979.BDRip.3xRus.avi
Format : AVI
Format/Info : Audio Video Interleave
Format profile : OpenDML
File size : 2.19 GiB
Duration : 1h 51mn
Overall bit rate : 2 798 Kbps
Writing application : VirtualDubMod 1.5.10.2 (build 2542/release)
Writing library : VirtualDubMod build 2542/release

Video
ID : 0
Format : MPEG-4 Visual
Format profile : Advanced Simple@L5
Format settings, BVOP : 1
Format settings, QPel : No
Format settings, GMC : No warppoints
Format settings, Matrix : Custom
Codec ID : XVID
Codec ID/Hint : XviD
Duration : 1h 51mn
Bit rate : 1 943 Kbps
Width : 720 pixels
Height : 400 pixels
Display aspect ratio : 16:9
Frame rate : 23.976 fps
Color space : YUV
Chroma subsampling : 4:2:0
Bit depth : 8 bits
Scan type : Progressive
Compression mode : Lossy
Bits/(Pixel*Frame) : 0.281
Stream size : 1.52 GiB (69%)
Writing library : XviD 73

Audio #1
ID : 1
Format : AC-3
Format/Info : Audio Coding 3
Mode extension : CM (complete main)
Format settings, Endianness : Big
Codec ID : 2000
Duration : 1h 51mn
Bit rate mode : Constant
Bit rate : 448 Kbps
Channel(s) : 6 channels
Channel positions : Front: L C R, Side: L R, LFE
Sampling rate : 48.0 KHz
Bit depth : 16 bits
Compression mode : Lossy
Stream size : 359 MiB (16%)
Alignment : Split accross interleaves
Interleave, duration : 42 ms (1.00 video frame)
Interleave, preload duration : 500 ms

Audio #2
ID : 2
Format : AC-3
Format/Info : Audio Coding 3
Mode extension : CM (complete main)
Format settings, Endianness : Big
Codec ID : 2000
Duration : 1h 51mn
Bit rate mode : Constant
Bit rate : 192 Kbps
Channel(s) : 2 channels
Channel positions : Front: L R
Sampling rate : 48.0 KHz
Bit depth : 16 bits
Compression mode : Lossy
Stream size : 154 MiB (7%)
Alignment : Split accross interleaves
Interleave, duration : 42 ms (1.00 video frame)
Interleave, preload duration : 500 ms

Audio #3
ID : 3
Format : AC-3
Format/Info : Audio Coding 3
Mode extension : CM (complete main)
Format settings, Endianness : Big
Codec ID : 2000
Duration : 1h 51mn
Bit rate mode : Constant
Bit rate : 192 Kbps
Channel(s) : 2 channels
Channel positions : Front: L R
Sampling rate : 48.0 KHz
Bit depth : 16 bits
Compression mode : Lossy
Stream size : 154 MiB (7%)
Alignment : Split accross interleaves
Interleave, duration : 42 ms (1.00 video frame)
Interleave, preload duration : 500 ms



Скачать Побег.из.Алькатраса.Escape.from.Alcatraz.(1979).BDRip.2x[MVO]+[AVO.(А.Михалев)].torrent без регистрации
Золото ЗОЛОТАЯ РАЗДАЧА! СКАЧАННОЕ НЕ ЗАСЧИТЫВАЕТСЯ! Золото
Дата: Зарегистрирован   [ Тип: внутренний ] Как тут cкачать?
MAGNET ссылка
MAGNET ссылка


Скачать .torrent

12 KB

Статус: проверено DHT
Скачан: торрент - 112 раз, раздача полностью - 19 раз
Размер: 2,19 GB
Оценка:  - (Голосов: 0)
Поблагодарили: 0
Поделиться ссылкой на эту раздачу с друзьями:
В контактеFacebookОдноклассникиTwitterLivejournalМой МирLiveinternet
 

 
Показать сообщения:    


Вы не можете начинать темы
Вы не можете отвечать на сообщения
Вы не можете редактировать свои сообщения
Вы не можете удалять свои сообщения
Вы не можете голосовать в опросах
Вы не можете прикреплять файлы к сообщениям
Вы можете скачивать файлы