Loading...
Error

Скачать Контейнер / Salvage (Лоуренс Гоф / Lawrence Gough) [2009, ужасы, драма, HDRip-AVC] торрент без регистрации

 
Статистика раздачи
Размер:  1,7 GB   |    Скачан:  124 раза
Сидов:  1  [  0 KB/s  ]  
 
Автор Сообщение

МихаНЕзатор

[] 



Контейнер / Salvage (2009) HDRip-AVC

Страна: Великобритания
Жанр: ужасы, драма
Год выпуска: 2009
Продолжительность: 01:18:43

Перевод: Авторский (одноголосый закадровый) ©acolith
Cубтитры: нет
Оригинальная аудиодорожка: английский - отдельно

Режиссер: Лоуренс Гоф / Lawrence Gough

В ролях: Нив Макинтош / Neve McIntosh, Шон Дули / Shaun Dooley, Линзи Коккер / Linzey Cocker, Дин Эндрюс / Dean Andrews, Шахид Ахмед / Shahid Ahmed, Тревор Хэнкок / Trevor Hancock, Рэй Николас / Ray Nicholas, Джэйк Нортон / Jake Norton, Дэбби Раш / Debbie Rush и другие.

Описание: На пляж прибрежного городка море прибивает зловещий контейнер с чем-то жутким внутри. Вскоре округа уже тонет в реках крови. В город врывается спецназ, а несчастная мать находится на грани помешательства пытаясь разыскать свою дочь. В жуткой кровавой бойне уже неясно кто хуже монстры или люди.



Доп. информация:

СЭМПЛ



Качество видео: HDRip-AVC(Исх. BD1080)
Формат видео: MKV

Видео: 1024x576 (16:9), 23.976 fps, х264, 2261 kbps avg
Аудио: 48 kHz, AC3 Dolby Digital, 3/2 (L,C,R,l,r) + LFE ch, ~384 kbps RUS
Аудио: 48 kHz, AC3 Dolby Digital, 3/2 (L,C,R,l,r) + LFE ch, ~448 kbps ENG

General
UniqueID : 200844480800479990327577492482323783484 (0x97193D6EED33D8328347BCAD5BDA1F3C)
Complete name : D:Konteyner.chopper887.mkv
Format : Matroska
File size : 1.45 GiB
Duration : 1h 18mn
Overall bit rate : 2 645 Kbps
Movie name : Konteyner.chopper887
Encoded date : UTC 2011-02-18 17:56:12
Writing application : mkvmerge v4.4.0 ('Die Wiederkehr') сборка от Nov 7 2010 22:17:07
Writing library : libebml v1.0.0 + libmatroska v1.0.0

Video
ID : 1
Format : AVC
Format/Info : Advanced Video Codec
Format profile : High@L4.1
Format settings, CABAC : Yes
Format settings, ReFrames : 10 frames
Format settings, GOP : M=3, N=11
Codec ID : V_MPEG4/ISO/AVC
Duration : 1h 18mn
Bit rate : 2 261 Kbps
Width : 1 024 pixels
Height : 576 pixels
Display aspect ratio : 16:9
Frame rate : 23.976 fps
Color space : YUV
Chroma subsampling : 4:2:0
Bit depth : 8 bits
Scan type : Progressive
Bits/(Pixel*Frame) : 0.160
Stream size : 1.21 GiB (83%)
Title : Konteyner.chopper887
Writing library : x264 core 112 r1867 22bfd31
Encoding settings : cabac=1 / ref=10 / deblock=1:-2:-1 / analyse=0x3:0x133 / me=umh / subme=9 / psy=1 / psy_rd=1.00:0.14 / mixed_ref=1 / me_range=32 / chroma_me=0 / trellis=2 / 8x8dct=1 / cqm=0 / deadzone=21,11 / fast_pskip=0 / chroma_qp_offset=-3 / threads=3 / sliced_threads=0 / nr=0 / decimate=1 / interlaced=0 / constrained_intra=0 / bframes=9 / b_pyramid=2 / b_adapt=2 / b_bias=0 / direct=3 / weightb=1 / open_gop=0 / weightp=2 / keyint=250 / keyint_min=23 / scenecut=40 / intra_refresh=0 / rc_lookahead=60 / rc=2pass / mbtree=1 / bitrate=2261 / ratetol=1.0 / qcomp=0.70 / qpmin=10 / qpmax=51 / qpstep=4 / cplxblur=20.0 / qblur=0.5 / ip_ratio=1.40 / aq=1:1.00
Language : English

Audio
ID : 2
Format : AC-3
Format/Info : Audio Coding 3
Mode extension : CM (complete main)
Codec ID : A_AC3
Duration : 1h 18mn
Bit rate mode : Constant
Bit rate : 384 Kbps
Channel(s) : 6 channels
Channel positions : Front: L C R, Side: L R, LFE
Sampling rate : 48.0 KHz
Bit depth : 16 bits
Compression mode : Lossy
Stream size : 216 MiB (15%)
Title : Авторский ©acolith





Скачать Контейнер.Salvage.(Лоуренс.Гоф.Lawrence.Gough).[2009.ужасы.драма.HDRip-AVC].torrent без регистрации
Золото ЗОЛОТАЯ РАЗДАЧА! СКАЧАННОЕ НЕ ЗАСЧИТЫВАЕТСЯ! Золото
Дата: Зарегистрирован   [ Тип: внутренний ] Как тут cкачать?
MAGNET ссылка
MAGNET ссылка


Скачать .torrent

18 KB

Статус: проверено DHT
Скачан: торрент - 124 раз, раздача полностью - 26 раз
Размер: 1,7 GB
Оценка:  5 (Голосов: 1)
Поблагодарили: 3
Поделиться ссылкой на эту раздачу с друзьями:
В контактеFacebookОдноклассникиTwitterLivejournalМой МирLiveinternet
 

 
Показать сообщения:    


Вы не можете начинать темы
Вы не можете отвечать на сообщения
Вы не можете редактировать свои сообщения
Вы не можете удалять свои сообщения
Вы не можете голосовать в опросах
Вы не можете прикреплять файлы к сообщениям
Вы можете скачивать файлы