Loading...
Error

Скачать Блудливая Калифорния / Californication (сезон 06) (Том Капинос) [2013, комедия, драма, HDTVRip] [720p] [MVO (LostFilm)] торрент без регистрации

 
Статистика раздачи
Размер:  11,62 GB   |    Скачан:  573 раза
Сидов:  1  [  0 KB/s  ]  
 
Автор Сообщение

МихаНЕзатор

[] 

Название: Блудливая Калифорния
Оригинальное название: Californication
Год выпуска: 2013
Страна: США
Жанр: комедия, драма
Продолжительность: 01 х ~ 00:29:00
Перевод: Профессиональный (многоголосый закадровый) - LostFilm
Субтитры: Нет
Режиссер: Том Капинос

В ролях: Дэвид Духовны, Наташа МакЭлхоун, Мадлен Мартин, Эван Хэндлер, Памела Адлон, Мадлен Зима, Каллум Кейт Ренни, Рэйчел Майнер, Карла Галло, Ева Амурри

Описание: Приключени Хэнка Муди продолжаются! По сюжету, Хэнк будет работать на Бродвее, где будут ставить мюзикл, по его книге «Бог ненавидит всех нас». В нескольких эпизодах появится Тим Минчин. Ему досталась роль Аттикуса Фетча. Его ввели в сценарий специально для того, чтобы он выступил автором саундтрека для Бродвейского мюзикла Crazy Little Thing Called Love ( «Эта сумасшедшая штучка по имени любовь»), основанного на одноименном фильме по роману Хэнка Муди. Аттикус попытается уговорить Хэнка сочинить сценарий для мюзикла, обещая ему, что вместе они превратят его в рок-оперу. Также в этом сезоне нас ждут флешбеки.



Ненормативная лексика.

Качество: HDTVRip 720p
Формат: MKV
Видео: MPEG4 AVC, 4041 Кбит/с, 1280x720
Аудио rus: AC3, 2 ch, 384 Кбит/с
Аудио eng: AC3, 2 ch, 384 Кбит/с

Релиз от:

09.04.2013 г. торент обновлён, добавлена 12 серия, залито полностью!

01. 01. The Unforgiven
02. Рецидивисты
03. Dead Rock Stars
04. Без ума от кожи
05. Молот и наковальня
06. В облаках
07. Эксперимент
08. Вокруг одни критики / Everybody's a Fucking Critic
09. Бешеные псы и англичане / Mad Dogs and Englishmen
10. Слепая вера / Blind Faith
11. Эбби / The Abby
Формат : Matroska
Размер файла : 1004 Мбайт
Продолжительность : 29 м.
Общий поток : 4809 Кбит/сек
Дата кодирования : UTC 2013-01-16 15:37:16
Программа кодирования : mkvmerge v4.2.0 ('No Talking') сборка от Jul 28 2010 18:38:23
Библиотека кодирования : libebml v1.0.0 + libmatroska v1.0.0

Видео
Идентификатор : 1
Формат : AVC
Формат/Информация : Advanced Video Codec
Профиль формата : High@L3.1
Параметр CABAC формата : Да
Параметр ReFrames формата : 4 кадра
Параметры GOP формата : M=3, N=6
Идентификатор кодека : V_MPEG4/ISO/AVC
Продолжительность : 29 м.
Битрейт : 4041 Кбит/сек
Ширина : 1280 пикс.
Высота : 720 пикс.
Соотношение сторон : 16:9
Частота кадров : 23,976 кадр/сек
Цветовое пространство : YUV
Подвыборка цветности : 4:2:0
Битовая глубина : 8 бит
Тип развёртки : Прогрессивная
Бит/(Пиксели*Кадры) : 0.183
Размер потока : 824 Мбайт (82%)
Библиотека кодирования : x264 core 112 r1834 a51816a
Настройки программы : cabac=1 / ref=1 / deblock=1:0:0 / analyse=0x3:0x113 / me=hex / subme=7 / psy=1 / psy_rd=1.00:0.00 / mixed_ref=0 / me_range=16 / chroma_me=1 / trellis=1 / 8x8dct=1 / cqm=0 / deadzone=21,11 / fast_pskip=1 / chroma_qp_offset=-2 / threads=6 / sliced_threads=0 / nr=0 / decimate=1 / interlaced=0 / constrained_intra=0 / bframes=3 / b_pyramid=2 / b_adapt=1 / b_bias=0 / direct=1 / weightb=1 / open_gop=0 / weightp=2 / keyint=250 / keyint_min=25 / scenecut=40 / intra_refresh=0 / rc_lookahead=40 / rc=2pass / mbtree=1 / bitrate=4041 / ratetol=1.0 / qcomp=0.60 / qpmin=0 / qpmax=51 / qpstep=4 / cplxblur=20.0 / qblur=0.5 / ip_ratio=1.40 / aq=1:1.00

Аудио #1
Идентификатор : 2
Формат : AC-3
Формат/Информация : Audio Coding 3
Расширение режима : CM (complete main)
Идентификатор кодека : A_AC3
Продолжительность : 29 м.
Вид битрейта : Постоянный
Битрейт : 384 Кбит/сек
Каналы : 2 канала
Расположение каналов : Front: L R
Частота : 44,1 КГц
Битовая глубина : 16 бит
Метод сжатия : С потерями
Размер потока : 80,2 Мбайт (8%)

Аудио #2
Идентификатор : 3
Формат : AC-3
Формат/Информация : Audio Coding 3
Расширение режима : CM (complete main)
Идентификатор кодека : A_AC3
Продолжительность : 29 м.
Вид битрейта : Постоянный
Битрейт : 384 Кбит/сек
Каналы : 2 канала
Расположение каналов : Front: L R
Частота : 48,0 КГц
Битовая глубина : 16 бит
Метод сжатия : С потерями
Размер потока : 80,2 Мбайт (8%)



Скачать Блудливая.Калифорния.Californication.(сезон.06).(Том.Капинос).[2013.комедия.драма.HDTVRip].[720p].[MVO.(LostFilm)].torrent без регистрации
Золото ЗОЛОТАЯ РАЗДАЧА! СКАЧАННОЕ НЕ ЗАСЧИТЫВАЕТСЯ! Золото
Дата: Зарегистрирован   [ Тип: внутренний ] Как тут cкачать?
MAGNET ссылка
MAGNET ссылка


Скачать .torrent

31 KB

Статус: проверено DHT
Скачан: торрент - 573 раз, раздача полностью - 284 раз
Размер: 11,62 GB
Оценка:  - (Голосов: 0)
Поблагодарили: 1
Поделиться ссылкой на эту раздачу с друзьями:
В контактеFacebookОдноклассникиTwitterLivejournalМой МирLiveinternet
 

 

МихаНЕзатор

[] 

Раздача обновлена
 
Показать сообщения:    


Вы не можете начинать темы
Вы не можете отвечать на сообщения
Вы не можете редактировать свои сообщения
Вы не можете удалять свои сообщения
Вы не можете голосовать в опросах
Вы не можете прикреплять файлы к сообщениям
Вы можете скачивать файлы