Loading...
Error

Скачать Всемогущие Джонсоны / The Almighty Johnsons (сезон 01) (Мюррэй Кин, Саймон Беннетт) [2010, драма, фантастика, HDTVRip] [MVO (DreamRecords)] торрент без регистрации

 
Статистика раздачи
Размер:  4,57 GB   |    Скачан:  5429 раз
Сидов:  1  [  0 KB/s  ]  
 
Автор Сообщение

МихаНЕзатор

[] 

Название: Всемогущие Джонсоны
Оригинальное название: The Almighty Johnsons
Год выпуска: 2010
Страна: Новая Зеландия
Жанр: драма, фантастика
Продолжительность: 08 х ~ 00:45:00
Перевод: Любительский (многоголосый закадровый) - DreamRecords
Субтитры: Нет
Режиссер: Мюррэй Кин, Саймон Беннетт

В ролях: Эмметт Скилтон ,Тимоти Бальм, Дин ОГорман, Джаред Тернер, Бен Баррингтон, Хейден Фрост, Киша Касл-Хьюз, Ферн Сазерленд, Рэйчел Нэш, Ив Гордон

Описание: Новая тихоокеанская комедия-драма о 4 братьях, выросших в Новой Зеландии, которым случилось стать живыми воплощениями норвежских богов. У них даже есть свои божественные суперсилы. Может, правда, их силы не настолько велики. Пока нет, но вскоре все может измениться

Перевод: Julia Anderson
Озвучка: Kenum, Regecat, ИринаЮС, Pro-Snip
Работа со звуком: LeX
Рип видео: LeX

Релиз от:

Качество: HDTVRip
Формат: AVI
Видео кодек: XviD
Аудио кодек: МР3
Видео: 720x400, 23.976 fps, 1 294 Kbps, 0.187 bit/pixel
Аудио rus: MP3, 48 kHz, 2 ch, 192 kbps

Добавлена 10-ая серия.

01. It's a Kind of a Birthday Present
02. This Is Where Duty Starts
03. God's Gift to Zebras
04. You Gotta Love Life, Baby
05. This Is Not Washing Powder, My Friend
06. Folkmoot
07. Effortless Manly Coolness
08. I Can Give You Frigg
09. Hunting Reindeer on Slippery Rocks
10. Every Good Quest Has a Sacrifice
Format : AVI
Format/Info : Audio Video Interleave
File size : 472 MiB
Duration : 44mn 9s
Overall bit rate : 1 495 Kbps
Writing application : VirtualDubModRus 1.5.10.2 (build 2542/release)
Writing library : VirtualDubMod build 2542/release

Video
ID : 0
Format : MPEG-4 Visual
Format profile : Advanced Simple@L5
Format settings, BVOP : 1
Format settings, QPel : No
Format settings, GMC : No warppoints
Format settings, Matrix : Default (MPEG)
Codec ID : XVID
Codec ID/Hint : XviD
Duration : 44mn 9s
Bit rate : 1 294 Kbps
Width : 720 pixels
Height : 400 pixels
Display aspect ratio : 16:9
Frame rate : 23.976 fps
Color space : YUV
Chroma subsampling : 4:2:0
Bit depth : 8 bits
Scan type : Progressive
Compression mode : Lossy
Bits/(Pixel*Frame) : 0.187
Stream size : 409 MiB (87%)
Writing library : XviD 64

Audio
ID : 1
Format : MPEG Audio
Format version : Version 1
Format profile : Layer 3
Mode : Joint stereo
Codec ID : 55
Codec ID/Hint : MP3
Duration : 44mn 9s
Bit rate mode : Constant
Bit rate : 192 Kbps
Channel(s) : 2 channels
Sampling rate : 48.0 KHz
Compression mode : Lossy
Stream size : 60.7 MiB (13%)
Alignment : Aligned on interleaves
Interleave, duration : 42 ms (1.00 video frame)
Interleave, preload duration : 504 ms



Скачать Всемогущие.Джонсоны.The.Almighty.Johnsons.(сезон.01).(Мюррэй.Кин.Саймон.Беннетт).[2010.драма.фантастика.HDTVRip].[MVO.(DreamRecords)].torrent без регистрации
Золото ЗОЛОТАЯ РАЗДАЧА! СКАЧАННОЕ НЕ ЗАСЧИТЫВАЕТСЯ! Золото
Дата: Зарегистрирован   [ Тип: внутренний ] Как тут cкачать?
MAGNET ссылка
MAGNET ссылка


Скачать .torrent

13 KB

Статус: проверено DHT
Скачан: торрент - 5429 раз, раздача полностью - 146 раз
Размер: 4,57 GB
Оценка:  - (Голосов: 0)
Поблагодарили: 1
Поделиться ссылкой на эту раздачу с друзьями:
В контактеFacebookОдноклассникиTwitterLivejournalМой МирLiveinternet
 

 
Показать сообщения:    


Вы не можете начинать темы
Вы не можете отвечать на сообщения
Вы не можете редактировать свои сообщения
Вы не можете удалять свои сообщения
Вы не можете голосовать в опросах
Вы не можете прикреплять файлы к сообщениям
Вы можете скачивать файлы