Loading...
Error

Скачать Всемогущие Джонсоны / The Almighty Johnsons (сезон 01) (Мюррэй Кин, Саймон Беннетт) [2010, драма, фантастика, HDTVRip] [720p] [MVO (DreamRecords)] торрент без регистрации

 
Статистика раздачи
Размер:  11,11 GB   |    Скачан:  150 раз
Сидов:  1  [  0 KB/s  ]  
 
Автор Сообщение

МихаНЕзатор

[] 

Название: Всемогущие Джонсоны
Оригинальное название: The Almighty Johnsons
Год выпуска: 2010
Страна: Новая Зеландия
Жанр: драма, фантастика
Продолжительность: 09 х ~ 00:45:00
Перевод: Любительский (многоголосый закадровый) - DreamRecords
Субтитры: Есть, Русские.
Режиссер: Мюррэй Кин, Саймон Беннетт

В ролях: Эмметт Скилтон ,Тимоти Бальм, Дин ОГорман, Джаред Тернер, Бен Баррингтон, Хейден Фрост, Киша Касл-Хьюз, Ферн Сазерленд, Рэйчел Нэш, Ив Гордон

Описание: Новая тихоокеанская комедия-драма о 4 братьях, выросших в Новой Зеландии, которым случилось стать живыми воплощениями норвежских богов. У них даже есть свои божественные суперсилы. Может, правда, их силы не настолько велики. Пока нет, но вскоре все может измениться

Перевод: Julia Anderson
Озвучка: Kenum, Regecat, ИринаЮС, Pro-Snip
Работа со звуком: LeX
Рип видео: LeX

Релиз от:

Качество: HDTVRip 720p
Формат: MKV
Видео кодек: H.264
Аудио кодек: AC3
Видео: 1280x720, 25 fps, 3 168 Kbps,0.138 bit/pixel
Аудио rus: AC3, 48Hz, 2 ch, 224 Kbps
Аудио еng: AC3, 48Hz, 2 ch, 224 Kbps

Добавлена 10-ая серия.

01. It's a Kind of a Birthday Present
02. This Is Where Duty Starts
03. God's Gift to Zebras
04. You Gotta Love Life, Baby
05. This Is Not Washing Powder, My Friend
06. Folkmoot
07. Effortless Manly Coolness
08. I Can Give You Frigg
09. Hunting Reindeer on Slippery Rocks
10. Every Good Quest Has a Sacrifice
Format : Matroska
Format version : Version 2
File size : 1.11 GiB
Duration : 44mn 0s
Overall bit rate : 3 616 Kbps
Movie name : the.almighty.johnsons.s01e01.repack.720p.hdtv.x264.flatline.mkv 5659
Encoded date : UTC 2012-11-01 21:35:10
Writing application : mkvmerge v5.8.0 ('No Sleep / Pillow') built on Sep 2 2012 15:37:04
Writing library : libebml v1.2.3 + libmatroska v1.3.0

Video
ID : 1
Format : AVC
Format/Info : Advanced Video Codec
Format profile : High@L4.1
Format settings, CABAC : Yes
Format settings, ReFrames : 5 frames
Codec ID : V_MPEG4/ISO/AVC
Duration : 44mn 0s
Bit rate : 3 168 Kbps
Width : 1 280 pixels
Height : 720 pixels
Display aspect ratio : 16:9
Frame rate mode : Constant
Frame rate : 25.000 fps
Color space : YUV
Chroma subsampling : 4:2:0
Bit depth : 8 bits
Scan type : Progressive
Bits/(Pixel*Frame) : 0.138
Stream size : 975 MiB (86%)
Writing library : x264 core 104 r1703 cd21d05
Encoding settings : cabac=1 / ref=5 / deblock=1:-3:-3 / analyse=0x3:0x113 / me=umh / subme=8 / psy=1 / psy_rd=1.20:0.20 / mixed_ref=1 / me_range=16 / chroma_me=1 / trellis=1 / 8x8dct=1 / cqm=0 / deadzone=21,11 / fast_pskip=0 / chroma_qp_offset=-3 / threads=2 / sliced_threads=0 / nr=0 / decimate=0 / interlaced=0 / constrained_intra=0 / bframes=3 / b_pyramid=2 / b_adapt=2 / b_bias=0 / direct=1 / weightb=1 / open_gop=0 / weightp=2 / keyint=250 / keyint_min=25 / scenecut=40 / intra_refresh=0 / rc=2pass / mbtree=0 / bitrate=3168 / ratetol=1.0 / qcomp=0.60 / qpmin=10 / qpmax=51 / qpstep=4 / cplxblur=20.0 / qblur=0.5 / ip_ratio=1.40 / pb_ratio=1.30 / aq=1:0.80
Language : English
Default : Yes
Forced : No

Audio #1
ID : 2
Format : AC-3
Format/Info : Audio Coding 3
Mode extension : CM (complete main)
Format settings, Endianness : Big
Codec ID : A_AC3
Duration : 44mn 0s
Bit rate mode : Constant
Bit rate : 224 Kbps
Channel(s) : 2 channels
Channel positions : Front: L R
Sampling rate : 48.0 KHz
Bit depth : 16 bits
Compression mode : Lossy
Stream size : 70.5 MiB (6%)
Title : DreamRecords
Language : Russian
Default : Yes
Forced : No

Audio #2
ID : 3
Format : AC-3
Format/Info : Audio Coding 3
Mode extension : CM (complete main)
Format settings, Endianness : Big
Codec ID : A_AC3
Duration : 44mn 0s
Bit rate mode : Constant
Bit rate : 224 Kbps
Channel(s) : 2 channels
Channel positions : Front: L R
Sampling rate : 48.0 KHz
Bit depth : 16 bits
Compression mode : Lossy
Stream size : 70.5 MiB (6%)
Title : Original
Language : English
Default : No
Forced : No

Text
ID : 4
Format : UTF-8
Codec ID : S_TEXT/UTF8
Codec ID/Info : UTF-8 Plain Text
Title : Rus Sub
Language : Russian
Default : Yes
Forced : No



Скачать Всемогущие.Джонсоны.The.Almighty.Johnsons.(сезон.01).(Мюррэй.Кин.Саймон.Беннетт).[2010.драма.фантастика.HDTVRip].[720p].[MVO.(DreamRecords)].torrent без регистрации
Золото ЗОЛОТАЯ РАЗДАЧА! СКАЧАННОЕ НЕ ЗАСЧИТЫВАЕТСЯ! Золото
Дата: Зарегистрирован   [ Тип: внутренний ] Как тут cкачать?
MAGNET ссылка
MAGNET ссылка


Скачать .torrent

29 KB

Статус: проверено DHT
Скачан: торрент - 150 раз, раздача полностью - 54 раз
Размер: 11,11 GB
Оценка:  - (Голосов: 0)
Поблагодарили: 5
Поделиться ссылкой на эту раздачу с друзьями:
В контактеFacebookОдноклассникиTwitterLivejournalМой МирLiveinternet
 

 
Показать сообщения:    


Вы не можете начинать темы
Вы не можете отвечать на сообщения
Вы не можете редактировать свои сообщения
Вы не можете удалять свои сообщения
Вы не можете голосовать в опросах
Вы не можете прикреплять файлы к сообщениям
Вы можете скачивать файлы