Loading...
Error

Скачать Отверженные / Les Miserables (Билле Аугуст / Bille August) [1998, триллер, драма, мелодрама, история, BDRip] [DUB] + [DVO] торрент без регистрации

 
Статистика раздачи
Размер:  1,47 GB   |    Скачан:  152 раза
Сидов:  1  [  0 KB/s  ]  
 
Автор Сообщение

leon030982

[] 

Отверженные
Les Miserables
«The legend comes to life.»
Год выпуска: 1998
Страна: Великобритания, Германия, США
Жанр: триллер, драма, мелодрама, криминал, история
Продолжительность: 02:13:57
Перевод №1: Профессиональный (дублированный)
Перевод №2: Профессиональный (двухголосый закадровый)
Субтитры: нет
Режиссёр: Билле Аугуст / Bille August

В ролях: Лиам Нисон (Valjean), Джеффри Раш (Javert), Ума Турман (Fantine), Клэр Дэйнс (Cosette), Кристофер Адамсон (Bertin), Ганс Мэтисон (Marius), Филип МакГоф (Judge), Тоби Джонс (Doorkeeper), Рейне Бринолфссон (Captain Beauvais), Кэтлин Байрон (Mother Superior), Тим Барлоу (Lafitte), Тимоти Бейтсон (Banker)

Описание: Первая половина девятнадцатого века. Франция находится на пороге революции. Жан Вальжан - отверженный, приговоренный к тюремному заключению и вынужденный скрываться от жестокого правосудия. Начальник парижского департамента полиции Жавер считает его поимку делом всей своей жизни. После смерти возлюбленной Жана единственным близким человеком для него остается ее дочь Козетт. Он пойдет на все ради ее счастья... навстречу своему злейшему врагу.

MPAA: PG-13 - Детям до 13 лет просмотр не желателен
Качество видео: BDRip [BDRemux {Neo_s @ BLUEBIRD} 1080p]
Формат: AVI
Видео: XviD, 720x304 (2.35:1), 23.976 fps, ~1169 kbps, 0.223 bpp
Аудио №1: Русский: AC3, 48 kHz, 2/0 (L, R), 16 bit, 192 kbps (Дубляж)
Аудио №2: Русский: AC3, 48 kHz, 2/0 (L, R), 16 bit, 192 kbps (Двухголосый)
General
Complete name : J:\torrents\Les Miserables 1998\Les.Miserables.1998.BDRip.XviD.AC3.DUB+MVO.avi
Format : AVI
Format/Info : Audio Video Interleave
File size : 1.47 GiB
Duration : 2h 13mn
Overall bit rate : 1 568 Kbps
Writing application : VirtualDubMod 1.5.10.3 | www.virtualdub-fr.org || (build 2550/release)
Writing library : VirtualDubMod build 2550/release
Video
ID : 0
Format : MPEG-4 Visual
Format profile : Advanced Simple@L5
Format settings, BVOP : 1
Format settings, QPel : No
Format settings, GMC : No warppoints
Format settings, Matrix : Custom
Codec ID : XVID
Codec ID/Hint : XviD
Duration : 2h 13mn
Bit rate : 1 169 Kbps
Width : 720 pixels
Height : 304 pixels
Display aspect ratio : 2.35:1
Frame rate : 23.976 fps
Color space : YUV
Chroma subsampling : 4:2:0
Bit depth : 8 bits
Scan type : Progressive
Compression mode : Lossy
Bits/(Pixel*Frame) : 0.223
Stream size : 1.09 GiB (75%)
Writing library : XviD 65
Audio #1
ID : 1
Format : AC-3
Format/Info : Audio Coding 3
Mode extension : CM (complete main)
Codec ID : 2000
Duration : 2h 13mn
Bit rate mode : Constant
Bit rate : 192 Kbps
Channel(s) : 2 channels
Channel positions : Front: L R
Sampling rate : 48.0 KHz
Bit depth : 16 bits
Compression mode : Lossy
Stream size : 184 MiB (12%)
Alignment : Split accross interleaves
Interleave, duration : 42 ms (1.00 video frame)
Interleave, preload duration : 500 ms
Audio #2
ID : 2
Format : AC-3
Format/Info : Audio Coding 3
Mode extension : CM (complete main)
Codec ID : 2000
Duration : 2h 13mn
Bit rate mode : Constant
Bit rate : 192 Kbps
Channel(s) : 2 channels
Channel positions : Front: L R
Sampling rate : 48.0 KHz
Bit depth : 16 bits
Compression mode : Lossy
Stream size : 184 MiB (12%)
Alignment : Split accross interleaves
Interleave, duration : 42 ms (1.00 video frame)
Interleave, preload duration : 500 ms




Скачать Отверженные.Les.Miserables.(Билле.Аугуст.Bille.August).[1998.триллер.драма.мелодрама.история.BDRip].[DUB].+.[DVO].torrent без регистрации
Золото ЗОЛОТАЯ РАЗДАЧА! СКАЧАННОЕ НЕ ЗАСЧИТЫВАЕТСЯ! Золото
Дата: Зарегистрирован   [ Тип: внутренний ] Как тут cкачать?
MAGNET ссылка
MAGNET ссылка


Скачать .torrent

15 KB

Статус: проверено DHT
Скачан: торрент - 152 раз, раздача полностью - 79 раз
Размер: 1,47 GB
Оценка:  5 (Голосов: 1)
Поблагодарили: 2
Поделиться ссылкой на эту раздачу с друзьями:
В контактеFacebookОдноклассникиTwitterLivejournalМой МирLiveinternet
 

 

leon030982

[] 

много пишут что данный фильм получше намного чем новая музыкальная версия
 
Показать сообщения:    


Вы не можете начинать темы
Вы не можете отвечать на сообщения
Вы не можете редактировать свои сообщения
Вы не можете удалять свои сообщения
Вы не можете голосовать в опросах
Вы не можете прикреплять файлы к сообщениям
Вы можете скачивать файлы