Loading...
Error

Скачать Кома / Coma (сезон 01) (Микаэл Саломон) [2012, фантастика, триллер, драма, HDTV] [720p] [DVO (NewStudio)] торрент без регистрации

 
Статистика раздачи
Размер:  4,71 GB   |    Скачан:  135 раз
Сидов:  1  [  0 KB/s  ]  
 
Автор Сообщение

МихаНЕзатор

[] 

Название: Кома
Оригинальное название: Coma
Год выпуска: 2012
Жанр: фантастика, триллер, драма
Режиссер: Микаэл Саломон

В ролях: Лорен Эмброуз, Стивен Паскуале, Джина Дэвис, Джеймс Вудс, Эллен Бёрстин, Ричард Дрейфусс

Описание: Ремейк одноименного триллера 1978 года с Майклом Дугласом в главной роли. Молодая женщина-доктор начинает подозревать, что в ее клинике творится нечто неладное. Сравнительно здоровые пациенты, испытывают "осложнения" в ходе простых операций и впадают в кому. После несчастных коматозников отвозят в исследовательский институт, где они располагаются под наблюдением. Девушке предстоит изучить палаты, морги и иные мрачные места жутковатого медицинского центра и убедить критически настроенного коллегу, что ее подозрения - не просто паранойя...

Страна: США
Продолжительность: 02 x ~ 01:18:00
Перевод: Профессиональный (двухголосый, закадровый) - NewStudio
Субтитры: Нет

Качество: HDTV 720p
Формат: MKV
Видео: MPEG4/AVC, 3422 kb/s, 1280x720
Аудио rus: AC3, 384 kb/s, 6ch
Аудио eng: AC3, 384 kb/s, 6ch

Релиз от:

Озвучка: Константин Погодаев, Анна Тух (Бяко Рекордс)
Перевод: StyleSmile
Подготовка видео: Koss
Работа со звуком: Koss
Формат : Matroska
Размер файла : 2,34 Гбайт
Продолжительность : 1 ч. 18 м.
Общий поток : 4275 Кбит/сек
Дата кодирования : UTC 2012-09-15 19:27:02
Программа кодирования : mkvmerge v5.7.0 ('The Whirlwind') built on Jul 8 2012 20:08:51
Библиотека кодирования : libebml v1.2.3 + libmatroska v1.3.0

Видео
Идентификатор : 1
Формат : AVC
Формат/Информация : Advanced Video Codec
Профиль формата : High@L4.1
Параметр CABAC формата : Да
Параметр ReFrames формата : 5 кадров
Идентификатор кодека : V_MPEG4/ISO/AVC
Продолжительность : 1 ч. 18 м.
Битрейт : 3422 Кбит/сек
Ширина : 1280 пикс.
Высота : 720 пикс.
Соотношение сторон : 16:9
Частота кадров : 23,976 кадр/сек
Цветовое пространство : YUV
Подвыборка цветности : 4:2:0
Битовая глубина : 8 бит
Тип развёртки : Прогрессивная
Бит/(Пиксели*Кадры) : 0.155
Размер потока : 1,87 Гбайт (80%)
Библиотека кодирования : x264 core 125 r2208 d9d2288
Настройки программы : cabac=1 / ref=5 / deblock=1:0:0 / analyse=0x3:0x113 / me=umh / subme=8 / psy=1 / psy_rd=1.00:0.00 / mixed_ref=1 / me_range=16 / chroma_me=1 / trellis=1 / 8x8dct=1 / cqm=0 / deadzone=21,11 / fast_pskip=1 / chroma_qp_offset=-2 / threads=12 / lookahead_threads=2 / sliced_threads=0 / nr=0 / decimate=1 / interlaced=0 / bluray_compat=0 / constrained_intra=0 / bframes=3 / b_pyramid=2 / b_adapt=2 / b_bias=0 / direct=3 / weightb=1 / open_gop=0 / weightp=2 / keyint=250 / keyint_min=23 / scenecut=40 / intra_refresh=0 / rc_lookahead=50 / rc=crf / mbtree=1 / crf=18.0 / qcomp=0.60 / qpmin=0 / qpmax=69 / qpstep=4 / ip_ratio=1.40 / aq=1:1.00
Язык : English
Коэффициенты матрицы : BT.709-5, BT.1361, IEC 61966-2-4 709, SMPTE RP177

Аудио #1
Идентификатор : 2
Формат : AC-3
Формат/Информация : Audio Coding 3
Расширение режима : CM (complete main)
Идентификатор кодека : A_AC3
Продолжительность : 1 ч. 18 м.
Вид битрейта : Постоянный
Битрейт : 384 Кбит/сек
Каналы : 6 каналов
Расположение каналов : Front: L C R, Side: L R, LFE
Частота : 48,0 КГц
Битовая глубина : 16 бит
Метод сжатия : С потерями
Размер потока : 215 Мбайт (9%)
Язык : Russian

Аудио #2
Идентификатор : 3
Формат : AC-3
Формат/Информация : Audio Coding 3
Расширение режима : CM (complete main)
Идентификатор кодека : A_AC3
Продолжительность : 1 ч. 18 м.
Вид битрейта : Постоянный
Битрейт : 384 Кбит/сек
Каналы : 6 каналов
Расположение каналов : Front: L C R, Side: L R, LFE
Частота : 48,0 КГц
Битовая глубина : 16 бит
Метод сжатия : С потерями
Размер потока : 215 Мбайт (9%)
Язык : English



Скачать Кома.Coma.(сезон.01).(Микаэл.Саломон).[2012.фантастика.триллер.драма.HDTV].[720p].[DVO.(NewStudio)].torrent без регистрации
Золото ЗОЛОТАЯ РАЗДАЧА! СКАЧАННОЕ НЕ ЗАСЧИТЫВАЕТСЯ! Золото
Дата: Зарегистрирован   [ Тип: внутренний ] Как тут cкачать?
MAGNET ссылка
MAGNET ссылка


Скачать .torrent

24 KB

Статус: проверено DHT
Скачан: торрент - 135 раз, раздача полностью - 16 раз
Размер: 4,71 GB
Оценка:  - (Голосов: 0)
Поблагодарили: 3
Поделиться ссылкой на эту раздачу с друзьями:
В контактеFacebookОдноклассникиTwitterLivejournalМой МирLiveinternet
 

 
Показать сообщения:    


Вы не можете начинать темы
Вы не можете отвечать на сообщения
Вы не можете редактировать свои сообщения
Вы не можете удалять свои сообщения
Вы не можете голосовать в опросах
Вы не можете прикреплять файлы к сообщениям
Вы можете скачивать файлы