Loading...
Error

Скачать Кома / Coma (сезон 01) (Микаэл Саломон) [2012, фантастика, триллер, драма, HDTV] [DVO (NewStudio)] торрент без регистрации

 
Статистика раздачи
Размер:  2,73 GB   |    Скачан:  163 раза

Полного источника не было: 25 минут

 
Автор Сообщение

МихаНЕзатор

[] 

Название: Кома
Оригинальное название: Coma
Год выпуска: 2012
Жанр: Фантастика, триллер, драма
Режиссер: Микаэл Саломон
В ролях: Лорен Эмброуз, Стивен Паскуале, Джина Дэвис, Джеймс Вудс, Эллен Бёрстин, Ричард Дрейфусс

Описание: Ремейк одноименного триллера 1978 года с Майклом Дугласом в главной роли. Молодая женщина-доктор начинает подозревать, что в ее клинике творится нечто неладное. Сравнительно здоровые пациенты, испытывают "осложнения" в ходе простых операций и впадают в кому. После несчастных коматозников отвозят в исследовательский институт, где они располагаются под наблюдением. Девушке предстоит изучить палаты, морги и иные мрачные места жутковатого медицинского центра и убедить критически настроенного коллегу, что ее подозрения - не просто паранойя...

Страна: США
Продолжительность: 02 x ~ 01:18:00
Перевод: Профессиональный (двухголосый, закадровый) - NewStudio
Субтитры: Нет

Озвучка: Константин Погодаев, Анна Тух (Бяко Рекордс)
Перевод: StyleSmile
Подготовка видео: Koss
Работа со звуком: Koss

Качество: HDTVRip
Формат: AVI
Видео: XviD, 2226 kb/s, 720x400
Аудио rus: MP3, 128 kb/s, 2ch
Аудио eng: MP3, 128 kb/s, 2ch

Релиз от:
Формат : AVI
Формат/Информация : Audio Video Interleave
Размер файла : 1,37 Гбайт
Продолжительность : 1 ч. 18 м.
Общий поток : 2498 Кбит/сек
Программа кодирования : VirtualDubMod 1.5.10.2 (build 2540/release)
Библиотека кодирования : VirtualDubMod build 2540/release

Видео
Идентификатор : 0
Формат : MPEG-4 Visual
Профиль формата : Advanced Simple@L5
Параметр BVOP формата : 2
Параметр QPel формата : Нет
Параметр GMC формата : Без точки перехода
Параметр матрицы формата : Default (MPEG)
Идентификатор кодека : XVID
Идентификатор кодека/Подсказка : XviD
Продолжительность : 1 ч. 18 м.
Битрейт : 2228 Кбит/сек
Ширина : 720 пикс.
Высота : 400 пикс.
Соотношение сторон : 16:9
Частота кадров : 23,976 кадр/сек
Цветовое пространство : YUV
Подвыборка цветности : 4:2:0
Битовая глубина : 8 бит
Тип развёртки : Прогрессивная
Метод сжатия : С потерями
Бит/(Пиксели*Кадры) : 0.323
Размер потока : 1,22 Гбайт (89%)
Библиотека кодирования : XviD 64

Аудио #1
Идентификатор : 1
Формат : MPEG Audio
Версия формата : Version 1
Профиль формата : Layer 3
Режим : Joint stereo
Расширение режима : MS Stereo
Идентификатор кодека : 55
Идентификатор кодека/Подсказка : MP3
Продолжительность : 1 ч. 18 м.
Вид битрейта : Постоянный
Битрейт : 128 Кбит/сек
Каналы : 2 канала
Частота : 48,0 КГц
Метод сжатия : С потерями
Размер потока : 71,8 Мбайт (5%)
Выравнивание : Соединение по промежуткам
Продолжительность промежутка : 42 мс. (1,00 видеокадр)
Время предзагрузки промежутка : 504 ms

Аудио #2
Идентификатор : 2
Формат : MPEG Audio
Версия формата : Version 1
Профиль формата : Layer 3
Режим : Joint stereo
Расширение режима : MS Stereo
Идентификатор кодека : 55
Идентификатор кодека/Подсказка : MP3
Продолжительность : 1 ч. 18 м.
Вид битрейта : Постоянный
Битрейт : 128 Кбит/сек
Каналы : 2 канала
Частота : 48,0 КГц
Метод сжатия : С потерями
Размер потока : 71,8 Мбайт (5%)
Выравнивание : Соединение по промежуткам
Продолжительность промежутка : 42 мс. (1,00 видеокадр)
Время предзагрузки промежутка : 504 ms



Скачать Кома.Coma.(сезон.01).(Микаэл.Саломон).[2012.фантастика.триллер.драма.HDTV].[DVO.(NewStudio)].torrent без регистрации
Золото ЗОЛОТАЯ РАЗДАЧА! СКАЧАННОЕ НЕ ЗАСЧИТЫВАЕТСЯ! Золото
Дата: Зарегистрирован   [ Тип: внутренний ] Как тут cкачать?
MAGNET ссылка
MAGNET ссылка


Скачать .torrent

14 KB

Статус: проверено DHT
Скачан: торрент - 163 раз, раздача полностью - 97 раз
Размер: 2,73 GB
Оценка:  - (Голосов: 0)
Поблагодарили: 3
Поделиться ссылкой на эту раздачу с друзьями:
В контактеFacebookОдноклассникиTwitterLivejournalМой МирLiveinternet
 

 
Показать сообщения:    


Вы не можете начинать темы
Вы не можете отвечать на сообщения
Вы не можете редактировать свои сообщения
Вы не можете удалять свои сообщения
Вы не можете голосовать в опросах
Вы не можете прикреплять файлы к сообщениям
Вы можете скачивать файлы